  0
SECTION
  2
HEADER
  9
$ACADVER
  1
AC1015
  9
$ACADMAINTVER
 70
     6
  9
$DWGCODEPAGE
  3
ANSI_932
  9
$INSBASE
 10
0.0
 20
0.0
 30
0.0
  9
$EXTMIN
 10
-75.77992609155514
 20
-2.112938193383487
 30
0.0
  9
$EXTMAX
 10
184.0950739084448
 20
236.6139648761409
 30
0.0
  9
$LIMMIN
 10
0.0
 20
0.0
  9
$LIMMAX
 10
420.0
 20
297.0
  9
$ORTHOMODE
 70
     0
  9
$REGENMODE
 70
     1
  9
$FILLMODE
 70
     1
  9
$QTEXTMODE
 70
     0
  9
$MIRRTEXT
 70
     1
  9
$LTSCALE
 40
1.0
  9
$ATTMODE
 70
     1
  9
$TEXTSIZE
 40
2.5
  9
$TRACEWID
 40
1.0
  9
$TEXTSTYLE
  7
Standard
  9
$CLAYER
  8
0
  9
$CELTYPE
  6
ByLayer
  9
$CECOLOR
 62
   256
  9
$CELTSCALE
 40
1.0
  9
$DISPSILH
 70
     0
  9
$DIMSCALE
 40
1.0
  9
$DIMASZ
 40
2.5
  9
$DIMEXO
 40
0.625
  9
$DIMDLI
 40
3.75
  9
$DIMRND
 40
0.0
  9
$DIMDLE
 40
0.0
  9
$DIMEXE
 40
1.25
  9
$DIMTP
 40
0.0
  9
$DIMTM
 40
0.0
  9
$DIMTXT
 40
2.5
  9
$DIMCEN
 40
2.5
  9
$DIMTSZ
 40
0.0
  9
$DIMTOL
 70
     0
  9
$DIMLIM
 70
     0
  9
$DIMTIH
 70
     0
  9
$DIMTOH
 70
     0
  9
$DIMSE1
 70
     0
  9
$DIMSE2
 70
     0
  9
$DIMTAD
 70
     1
  9
$DIMZIN
 70
     8
  9
$DIMBLK
  1

  9
$DIMASO
 70
     1
  9
$DIMSHO
 70
     1
  9
$DIMPOST
  1

  9
$DIMAPOST
  1

  9
$DIMALT
 70
     0
  9
$DIMALTD
 70
     3
  9
$DIMALTF
 40
0.03937007874016
  9
$DIMLFAC
 40
1.0
  9
$DIMTOFL
 70
     1
  9
$DIMTVP
 40
0.0
  9
$DIMTIX
 70
     0
  9
$DIMSOXD
 70
     0
  9
$DIMSAH
 70
     0
  9
$DIMBLK1
  1

  9
$DIMBLK2
  1

  9
$DIMSTYLE
  2
ISO-25
  9
$DIMCLRD
 70
     0
  9
$DIMCLRE
 70
     0
  9
$DIMCLRT
 70
     0
  9
$DIMTFAC
 40
1.0
  9
$DIMGAP
 40
0.625
  9
$DIMJUST
 70
     0
  9
$DIMSD1
 70
     0
  9
$DIMSD2
 70
     0
  9
$DIMTOLJ
 70
     0
  9
$DIMTZIN
 70
     8
  9
$DIMALTZ
 70
     0
  9
$DIMALTTZ
 70
     0
  9
$DIMUPT
 70
     0
  9
$DIMDEC
 70
     2
  9
$DIMTDEC
 70
     2
  9
$DIMALTU
 70
     2
  9
$DIMALTTD
 70
     3
  9
$DIMTXSTY
  7
Standard
  9
$DIMAUNIT
 70
     0
  9
$DIMADEC
 70
     0
  9
$DIMALTRND
 40
0.0
  9
$DIMAZIN
 70
     0
  9
$DIMDSEP
 70
    44
  9
$DIMATFIT
 70
     3
  9
$DIMFRAC
 70
     0
  9
$DIMLDRBLK
  1

  9
$DIMLUNIT
 70
     2
  9
$DIMLWD
 70
    -2
  9
$DIMLWE
 70
    -2
  9
$DIMTMOVE
 70
     0
  9
$LUNITS
 70
     2
  9
$LUPREC
 70
     4
  9
$SKETCHINC
 40
1.0
  9
$FILLETRAD
 40
1.0
  9
$AUNITS
 70
     0
  9
$AUPREC
 70
     0
  9
$MENU
  1
.
  9
$ELEVATION
 40
0.0
  9
$PELEVATION
 40
0.0
  9
$THICKNESS
 40
0.0
  9
$LIMCHECK
 70
     0
  9
$CHAMFERA
 40
0.6
  9
$CHAMFERB
 40
0.6
  9
$CHAMFERC
 40
20.0
  9
$CHAMFERD
 40
0.0
  9
$SKPOLY
 70
     0
  9
$TDCREATE
 40
2460404.697397199
  9
$TDUCREATE
 40
2460404.322397199
  9
$TDUPDATE
 40
2460406.405925579
  9
$TDUUPDATE
 40
2460406.030925579
  9
$TDINDWG
 40
0.0542343519
  9
$TDUSRTIMER
 40
0.0542343519
  9
$USRTIMER
 70
     1
  9
$ANGBASE
 50
0.0
  9
$ANGDIR
 70
     0
  9
$PDMODE
 70
     0
  9
$PDSIZE
 40
0.0
  9
$PLINEWID
 40
0.0
  9
$SPLFRAME
 70
     0
  9
$SPLINETYPE
 70
     6
  9
$SPLINESEGS
 70
     8
  9
$HANDSEED
  5
8CE
  9
$SURFTAB1
 70
     6
  9
$SURFTAB2
 70
     6
  9
$SURFTYPE
 70
     6
  9
$SURFU
 70
     6
  9
$SURFV
 70
     6
  9
$UCSBASE
  2

  9
$UCSNAME
  2

  9
$UCSORG
 10
0.0
 20
0.0
 30
0.0
  9
$UCSXDIR
 10
1.0
 20
0.0
 30
0.0
  9
$UCSYDIR
 10
0.0
 20
1.0
 30
0.0
  9
$UCSORTHOREF
  2

  9
$UCSORTHOVIEW
 70
     0
  9
$UCSORGTOP
 10
0.0
 20
0.0
 30
0.0
  9
$UCSORGBOTTOM
 10
0.0
 20
0.0
 30
0.0
  9
$UCSORGLEFT
 10
0.0
 20
0.0
 30
0.0
  9
$UCSORGRIGHT
 10
0.0
 20
0.0
 30
0.0
  9
$UCSORGFRONT
 10
0.0
 20
0.0
 30
0.0
  9
$UCSORGBACK
 10
0.0
 20
0.0
 30
0.0
  9
$PUCSBASE
  2

  9
$PUCSNAME
  2

  9
$PUCSORG
 10
0.0
 20
0.0
 30
0.0
  9
$PUCSXDIR
 10
1.0
 20
0.0
 30
0.0
  9
$PUCSYDIR
 10
0.0
 20
1.0
 30
0.0
  9
$PUCSORTHOREF
  2

  9
$PUCSORTHOVIEW
 70
     0
  9
$PUCSORGTOP
 10
0.0
 20
0.0
 30
0.0
  9
$PUCSORGBOTTOM
 10
0.0
 20
0.0
 30
0.0
  9
$PUCSORGLEFT
 10
0.0
 20
0.0
 30
0.0
  9
$PUCSORGRIGHT
 10
0.0
 20
0.0
 30
0.0
  9
$PUCSORGFRONT
 10
0.0
 20
0.0
 30
0.0
  9
$PUCSORGBACK
 10
0.0
 20
0.0
 30
0.0
  9
$USERI1
 70
     0
  9
$USERI2
 70
     0
  9
$USERI3
 70
     0
  9
$USERI4
 70
     0
  9
$USERI5
 70
     0
  9
$USERR1
 40
0.0
  9
$USERR2
 40
0.0
  9
$USERR3
 40
0.0
  9
$USERR4
 40
0.0
  9
$USERR5
 40
0.0
  9
$WORLDVIEW
 70
     1
  9
$SHADEDGE
 70
     3
  9
$SHADEDIF
 70
    70
  9
$TILEMODE
 70
     1
  9
$MAXACTVP
 70
    64
  9
$PINSBASE
 10
0.0
 20
0.0
 30
0.0
  9
$PLIMCHECK
 70
     0
  9
$PEXTMIN
 10
1.000000000000000E+20
 20
1.000000000000000E+20
 30
1.000000000000000E+20
  9
$PEXTMAX
 10
-1.000000000000000E+20
 20
-1.000000000000000E+20
 30
-1.000000000000000E+20
  9
$PLIMMIN
 10
0.0
 20
0.0
  9
$PLIMMAX
 10
420.0
 20
297.0
  9
$UNITMODE
 70
     0
  9
$VISRETAIN
 70
     1
  9
$PLINEGEN
 70
     0
  9
$PSLTSCALE
 70
     1
  9
$TREEDEPTH
 70
  3020
  9
$CMLSTYLE
  2
Standard
  9
$CMLJUST
 70
     0
  9
$CMLSCALE
 40
20.0
  9
$PROXYGRAPHICS
 70
     1
  9
$MEASUREMENT
 70
     1
  9
$CELWEIGHT
370
    -1
  9
$ENDCAPS
280
     0
  9
$JOINSTYLE
280
     0
  9
$LWDISPLAY
290
     0
  9
$INSUNITS
 70
     4
  9
$HYPERLINKBASE
  1

  9
$STYLESHEET
  1

  9
$XEDIT
290
     1
  9
$CEPSNTYPE
380
     0
  9
$PSTYLEMODE
290
     1
  9
$FINGERPRINTGUID
  2
{FDEAD578-A652-11D2-9A35-0060089B3A3F}
  9
$VERSIONGUID
  2
{B71623AD-9B16-4436-8297-4823F512649D}
  9
$EXTNAMES
290
     1
  9
$PSVPSCALE
 40
0.0
  9
$OLESTARTUP
290
     0
  0
ENDSEC
  0
SECTION
  2
CLASSES
  0
CLASS
  1
ACDBDICTIONARYWDFLT
  2
AcDbDictionaryWithDefault
  3
AutoCAD 2000
 90
        0
280
     0
281
     0
  0
CLASS
  1
ACDBPLACEHOLDER
  2
AcDbPlaceHolder
  3
AutoCAD 2000
 90
        0
280
     0
281
     0
  0
CLASS
  1
LAYOUT
  2
AcDbLayout
  3
AutoCAD 2000
 90
        0
280
     0
281
     0
  0
ENDSEC
  0
SECTION
  2
TABLES
  0
TABLE
  2
VPORT
  5
8
330
0
100
AcDbSymbolTable
 70
     2
  0
VPORT
  5
8CD
330
8
100
AcDbSymbolTableRecord
100
AcDbViewportTableRecord
  2
*Active
 70
     0
 10
0.0
 20
0.0
 11
1.0
 21
1.0
 12
65.82661694849218
 22
127.1679036438411
 13
0.0
 23
0.0
 14
10.0
 24
10.0
 15
10.0
 25
10.0
 16
0.0
 26
0.0
 36
1.0
 17
0.0
 27
0.0
 37
0.0
 40
297.8163612832687
 41
2.165492957746478
 42
50.0
 43
0.0
 44
0.0
 50
0.0
 51
0.0
 71
     0
 72
   100
 73
     1
 74
     3
 75
     0
 76
     0
 77
     0
 78
     0
281
     0
 65
     1
110
0.0
120
0.0
130
0.0
111
1.0
121
0.0
131
0.0
112
0.0
122
1.0
132
0.0
 79
     0
146
0.0
  0
ENDTAB
  0
TABLE
  2
LTYPE
  5
5
330
0
100
AcDbSymbolTable
 70
     1
  0
LTYPE
  5
14
330
5
100
AcDbSymbolTableRecord
100
AcDbLinetypeTableRecord
  2
ByBlock
 70
     0
  3

 72
    65
 73
     0
 40
0.0
  0
LTYPE
  5
15
330
5
100
AcDbSymbolTableRecord
100
AcDbLinetypeTableRecord
  2
ByLayer
 70
     0
  3

 72
    65
 73
     0
 40
0.0
  0
LTYPE
  5
16
330
5
100
AcDbSymbolTableRecord
100
AcDbLinetypeTableRecord
  2
Continuous
 70
     0
  3
Solid line
 72
    65
 73
     0
 40
0.0
  0
ENDTAB
  0
TABLE
  2
LAYER
  5
2
102
{ACAD_XDICTIONARY
360
44
102
}
330
0
100
AcDbSymbolTable
 70
     4
  0
LAYER
  5
10
330
2
100
AcDbSymbolTableRecord
100
AcDbLayerTableRecord
  2
0
 70
     0
 62
     7
  6
Continuous
370
    -3
390
F
  0
LAYER
  5
33C
330
2
100
AcDbSymbolTableRecord
100
AcDbLayerTableRecord
  2
Defpoints
 70
     0
 62
     2
  6
Continuous
290
     0
370
    -3
390
F
  0
LAYER
  5
33D
330
2
100
AcDbSymbolTableRecord
100
AcDbLayerTableRecord
  2
寸法
 70
     0
 62
     6
  6
Continuous
370
    -3
390
F
  0
LAYER
  5
33E
330
2
100
AcDbSymbolTableRecord
100
AcDbLayerTableRecord
  2
文字
 70
     0
 62
    30
  6
Continuous
370
    -3
390
F
  0
ENDTAB
  0
TABLE
  2
STYLE
  5
3
330
0
100
AcDbSymbolTable
 70
     1
  0
STYLE
  5
11
330
3
100
AcDbSymbolTableRecord
100
AcDbTextStyleTableRecord
  2
Standard
 70
     0
 40
0.0
 41
1.0
 50
0.0
 71
     0
 42
2.5
  3
MS PGothic.ttf
  4

1001
ACAD
1000
MS PGothic
1071
    32818
  0
ENDTAB
  0
TABLE
  2
VIEW
  5
6
330
0
100
AcDbSymbolTable
 70
     0
  0
ENDTAB
  0
TABLE
  2
UCS
  5
7
330
0
100
AcDbSymbolTable
 70
     0
  0
ENDTAB
  0
TABLE
  2
APPID
  5
9
330
0
100
AcDbSymbolTable
 70
     1
  0
APPID
  5
12
330
9
100
AcDbSymbolTableRecord
100
AcDbRegAppTableRecord
  2
ACAD
 70
     0
  0
ENDTAB
  0
TABLE
  2
DIMSTYLE
  5
A
330
0
100
AcDbSymbolTable
 70
     3
100
AcDbDimStyleTable
 71
     1
340
27
  0
DIMSTYLE
105
27
330
A
100
AcDbSymbolTableRecord
100
AcDbDimStyleTableRecord
  2
ISO-25
 70
     0
 41
2.5
 42
0.625
 43
3.75
 44
1.25
 73
     0
 74
     0
 77
     1
 78
     8
140
2.5
141
2.5
143
0.03937007874016
147
0.625
171
     3
172
     1
271
     2
272
     2
274
     3
278
    44
283
     0
284
     8
340
11
  0
DIMSTYLE
105
33F
330
A
100
AcDbSymbolTableRecord
100
AcDbDimStyleTableRecord
  2
Standard
 70
     0
289
     0
340
11
  0
DIMSTYLE
105
340
102
{ACAD_REACTORS
330
75F
330
775
330
79D
330
7BC
330
7E5
330
7E4
330
81D
330
819
330
86C
330
882
330
8B3
102
}
330
A
100
AcDbSymbolTableRecord
100
AcDbDimStyleTableRecord
  2
ISO-25 1／10
 70
     0
 41
2.0
 42
2.0
 43
3.75
 44
0.5
 73
     0
 74
     0
 77
     1
 78
     8
140
2.5
141
2.0
143
0.03937007874016
147
0.75
171
     3
172
     1
174
     1
175
     1
271
     8
272
     8
274
     3
283
     0
284
     8
340
11
  0
ENDTAB
  0
TABLE
  2
BLOCK_RECORD
  5
1
330
0
100
AcDbSymbolTable
 70
    12
  0
BLOCK_RECORD
  5
1F
330
1
100
AcDbSymbolTableRecord
100
AcDbBlockTableRecord
  2
*Model_Space
340
22
  0
BLOCK_RECORD
  5
1B
330
1
100
AcDbSymbolTableRecord
100
AcDbBlockTableRecord
  2
*Paper_Space
340
1E
  0
BLOCK_RECORD
  5
23
330
1
100
AcDbSymbolTableRecord
100
AcDbBlockTableRecord
  2
*Paper_Space0
340
26
  0
BLOCK_RECORD
  5
760
330
1
100
AcDbSymbolTableRecord
100
AcDbBlockTableRecord
  2
*D1
340
0
  0
BLOCK_RECORD
  5
776
330
1
100
AcDbSymbolTableRecord
100
AcDbBlockTableRecord
  2
*D2
340
0
  0
BLOCK_RECORD
  5
79E
330
1
100
AcDbSymbolTableRecord
100
AcDbBlockTableRecord
  2
*D3
340
0
  0
BLOCK_RECORD
  5
7BD
330
1
100
AcDbSymbolTableRecord
100
AcDbBlockTableRecord
  2
*D4
340
0
  0
BLOCK_RECORD
  5
7E6
330
1
100
AcDbSymbolTableRecord
100
AcDbBlockTableRecord
  2
*D5
340
0
  0
BLOCK_RECORD
  5
7F2
330
1
100
AcDbSymbolTableRecord
100
AcDbBlockTableRecord
  2
*D6
340
0
  0
BLOCK_RECORD
  5
82F
330
1
100
AcDbSymbolTableRecord
100
AcDbBlockTableRecord
  2
*D7
340
0
  0
BLOCK_RECORD
  5
83B
330
1
100
AcDbSymbolTableRecord
100
AcDbBlockTableRecord
  2
*D8
340
0
  0
BLOCK_RECORD
  5
86D
330
1
100
AcDbSymbolTableRecord
100
AcDbBlockTableRecord
  2
*D9
340
0
  0
BLOCK_RECORD
  5
883
330
1
100
AcDbSymbolTableRecord
100
AcDbBlockTableRecord
  2
*D10
340
0
  0
BLOCK_RECORD
  5
8B4
330
1
100
AcDbSymbolTableRecord
100
AcDbBlockTableRecord
  2
*D11
340
0
  0
ENDTAB
  0
ENDSEC
  0
SECTION
  2
BLOCKS
  0
BLOCK
  5
20
330
1F
100
AcDbEntity
  8
0
100
AcDbBlockBegin
  2
*Model_Space
 70
     0
 10
0.0
 20
0.0
 30
0.0
  3
*Model_Space
  1

  0
ENDBLK
  5
21
330
1F
100
AcDbEntity
  8
0
100
AcDbBlockEnd
  0
BLOCK
  5
1C
330
1B
100
AcDbEntity
 67
     1
  8
0
100
AcDbBlockBegin
  2
*Paper_Space
 70
     0
 10
0.0
 20
0.0
 30
0.0
  3
*Paper_Space
  1

  0
ENDBLK
  5
1D
330
1B
100
AcDbEntity
 67
     1
  8
0
100
AcDbBlockEnd
  0
BLOCK
  5
24
330
23
100
AcDbEntity
  8
0
100
AcDbBlockBegin
  2
*Paper_Space0
 70
     0
 10
0.0
 20
0.0
 30
0.0
  3
*Paper_Space0
  1

  0
ENDBLK
  5
25
330
23
100
AcDbEntity
  8
0
100
AcDbBlockEnd
  0
BLOCK
  5
76A
330
760
100
AcDbEntity
  8
0
100
AcDbBlockBegin
  2
*D1
 70
     1
 10
0.0
 20
0.0
 30
0.0
  3
*D1
  1

  0
LINE
  5
76C
330
760
100
AcDbEntity
  8
寸法
 62
     0
370
    -2
100
AcDbLine
 10
34.09507390844487
 20
227.7389648761408
 30
0.0
 11
30.59507390844487
 21
227.7389648761408
 31
0.0
  0
LINE
  5
76D
330
760
100
AcDbEntity
  8
寸法
 62
     0
370
    -2
100
AcDbLine
 10
34.09507390844487
 20
199.7389648761409
 30
0.0
 11
30.59507390844486
 21
199.7389648761409
 31
0.0
  0
LINE
  5
76E
330
760
100
AcDbEntity
  8
寸法
 62
     0
370
    -2
100
AcDbLine
 10
31.09507390844487
 20
225.7389648761408
 30
0.0
 11
31.09507390844487
 21
201.7389648761409
 31
0.0
  0
SOLID
  5
76F
330
760
100
AcDbEntity
  8
寸法
 62
     0
100
AcDbTrace
 10
30.76174057511154
 20
225.7389648761408
 30
0.0
 11
31.4284072417782
 21
225.7389648761408
 31
0.0
 12
31.09507390844487
 22
227.7389648761408
 32
0.0
 13
31.09507390844487
 23
227.7389648761408
 33
0.0
  0
SOLID
  5
770
330
760
100
AcDbEntity
  8
寸法
 62
     0
100
AcDbTrace
 10
30.76174057511154
 20
201.7389648761409
 30
0.0
 11
31.4284072417782
 21
201.7389648761409
 31
0.0
 12
31.09507390844486
 22
199.7389648761409
 32
0.0
 13
31.09507390844486
 23
199.7389648761409
 33
0.0
  0
MTEXT
  5
771
330
760
100
AcDbEntity
  8
寸法
 62
     0
370
    13
100
AcDbMText
 10
29.09507390844483
 20
213.7389648761409
 30
0.0
 40
2.5
 41
0.0
 71
     5
 72
     1
  1
28
 11
0.0000000000000001
 21
1.0
 31
0.0
 73
     1
 44
1.0
  0
POINT
  5
772
330
760
100
AcDbEntity
  8
Defpoints
 62
     0
100
AcDbPoint
 10
36.09507390844486
 20
227.7389648761408
 30
0.0
  0
POINT
  5
773
330
760
100
AcDbEntity
  8
Defpoints
 62
     0
100
AcDbPoint
 10
36.09507390844486
 20
199.7389648761409
 30
0.0
  0
POINT
  5
774
330
760
100
AcDbEntity
  8
Defpoints
 62
     0
100
AcDbPoint
 10
31.09507390844486
 20
199.7389648761409
 30
0.0
  0
ENDBLK
  5
76B
330
760
100
AcDbEntity
  8
0
100
AcDbBlockEnd
  0
BLOCK
  5
780
330
776
100
AcDbEntity
  8
0
100
AcDbBlockBegin
  2
*D2
 70
     1
 10
0.0
 20
0.0
 30
0.0
  3
*D2
  1

  0
LINE
  5
794
330
776
100
AcDbEntity
  8
寸法
 62
     0
370
    -2
100
AcDbLine
 10
86.09507390844488
 20
229.7389648761408
 30
0.0
 11
86.09507390844488
 21
233.2389648761409
 31
0.0
  0
LINE
  5
795
330
776
100
AcDbEntity
  8
寸法
 62
     0
370
    -2
100
AcDbLine
 10
36.09507390844486
 20
229.7389648761408
 30
0.0
 11
36.09507390844486
 21
233.2389648761409
 31
0.0
  0
LINE
  5
796
330
776
100
AcDbEntity
  8
寸法
 62
     0
370
    -2
100
AcDbLine
 10
84.09507390844487
 20
232.7389648761409
 30
0.0
 11
38.09507390844487
 21
232.7389648761409
 31
0.0
  0
SOLID
  5
797
330
776
100
AcDbEntity
  8
寸法
 62
     0
100
AcDbTrace
 10
84.09507390844487
 20
233.0722982094742
 30
0.0
 11
84.09507390844487
 21
232.4056315428075
 31
0.0
 12
86.09507390844488
 22
232.7389648761409
 32
0.0
 13
86.09507390844488
 23
232.7389648761409
 33
0.0
  0
SOLID
  5
798
330
776
100
AcDbEntity
  8
寸法
 62
     0
100
AcDbTrace
 10
38.09507390844487
 20
233.0722982094742
 30
0.0
 11
38.09507390844487
 21
232.4056315428075
 31
0.0
 12
36.09507390844486
 22
232.7389648761409
 32
0.0
 13
36.09507390844486
 23
232.7389648761409
 33
0.0
  0
MTEXT
  5
799
330
776
100
AcDbEntity
  8
寸法
 62
     0
370
    13
100
AcDbMText
 10
61.09507390844488
 20
234.7389648761409
 30
0.0
 40
2.5
 41
0.0
 71
     5
 72
     1
  1
50
 73
     1
 44
1.0
  0
POINT
  5
79A
330
776
100
AcDbEntity
  8
Defpoints
 62
     0
100
AcDbPoint
 10
86.09507390844488
 20
227.7389648761408
 30
0.0
  0
POINT
  5
79B
330
776
100
AcDbEntity
  8
Defpoints
 62
     0
100
AcDbPoint
 10
36.09507390844486
 20
227.7389648761408
 30
0.0
  0
POINT
  5
79C
330
776
100
AcDbEntity
  8
Defpoints
 62
     0
100
AcDbPoint
 10
36.09507390844486
 20
232.7389648761409
 30
0.0
  0
ENDBLK
  5
781
330
776
100
AcDbEntity
  8
0
100
AcDbBlockEnd
  0
BLOCK
  5
7A8
330
79E
100
AcDbEntity
  8
0
100
AcDbBlockBegin
  2
*D3
 70
     1
 10
0.0
 20
0.0
 30
0.0
  3
*D3
  1

  0
LINE
  5
7B3
330
79E
100
AcDbEntity
  8
寸法
 62
     0
370
    -2
100
AcDbLine
 10
-63.90492609155512
 20
145.7389648761408
 30
0.0
 11
-67.40492609155513
 21
145.7389648761409
 31
0.0
  0
LINE
  5
7B4
330
79E
100
AcDbEntity
  8
寸法
 62
     0
370
    -2
100
AcDbLine
 10
-63.90492609155512
 20
121.7389648761409
 30
0.0
 11
-67.40492609155513
 21
121.7389648761409
 31
0.0
  0
LINE
  5
7B5
330
79E
100
AcDbEntity
  8
寸法
 62
     0
370
    -2
100
AcDbLine
 10
-66.90492609155512
 20
143.7389648761409
 30
0.0
 11
-66.90492609155512
 21
123.7389648761409
 31
0.0
  0
SOLID
  5
7B6
330
79E
100
AcDbEntity
  8
寸法
 62
     0
100
AcDbTrace
 10
-67.23825942488845
 20
143.7389648761409
 30
0.0
 11
-66.5715927582218
 21
143.7389648761409
 31
0.0
 12
-66.90492609155512
 22
145.7389648761409
 32
0.0
 13
-66.90492609155512
 23
145.7389648761409
 33
0.0
  0
SOLID
  5
7B7
330
79E
100
AcDbEntity
  8
寸法
 62
     0
100
AcDbTrace
 10
-67.23825942488845
 20
123.7389648761409
 30
0.0
 11
-66.5715927582218
 21
123.7389648761409
 31
0.0
 12
-66.90492609155512
 22
121.7389648761409
 32
0.0
 13
-66.90492609155512
 23
121.7389648761409
 33
0.0
  0
MTEXT
  5
7B8
330
79E
100
AcDbEntity
  8
寸法
 62
     0
370
    13
100
AcDbMText
 10
-68.90492609155514
 20
133.7389648761408
 30
0.0
 40
2.5
 41
0.0
 71
     5
 72
     1
  1
24
 11
0.0000000000000001
 21
1.0
 31
0.0
 73
     1
 44
1.0
  0
POINT
  5
7B9
330
79E
100
AcDbEntity
  8
Defpoints
 62
     0
100
AcDbPoint
 10
-61.90492609155512
 20
145.7389648761408
 30
0.0
  0
POINT
  5
7BA
330
79E
100
AcDbEntity
  8
Defpoints
 62
     0
100
AcDbPoint
 10
-61.90492609155512
 20
121.7389648761409
 30
0.0
  0
POINT
  5
7BB
330
79E
100
AcDbEntity
  8
Defpoints
 62
     0
100
AcDbPoint
 10
-66.90492609155512
 20
121.7389648761409
 30
0.0
  0
ENDBLK
  5
7A9
330
79E
100
AcDbEntity
  8
0
100
AcDbBlockEnd
  0
BLOCK
  5
7C7
330
7BD
100
AcDbEntity
  8
0
100
AcDbBlockBegin
  2
*D4
 70
     1
 10
0.0
 20
0.0
 30
0.0
  3
*D4
  1

  0
LINE
  5
7DB
330
7BD
100
AcDbEntity
  8
寸法
 62
     0
370
    -2
100
AcDbLine
 10
-53.40492609155513
 20
149.7389648761409
 30
0.0
 11
-72.40492609155513
 21
149.7389648761409
 31
0.0
  0
LINE
  5
7DC
330
7BD
100
AcDbEntity
  8
寸法
 62
     0
370
    -2
100
AcDbLine
 10
-63.90492609155512
 20
121.7389648761409
 30
0.0
 11
-72.40492609155513
 21
121.7389648761409
 31
0.0
  0
LINE
  5
7DD
330
7BD
100
AcDbEntity
  8
寸法
 62
     0
370
    -2
100
AcDbLine
 10
-71.90492609155512
 20
147.7389648761409
 30
0.0
 11
-71.90492609155512
 21
123.7389648761409
 31
0.0
  0
SOLID
  5
7DE
330
7BD
100
AcDbEntity
  8
寸法
 62
     0
100
AcDbTrace
 10
-72.23825942488845
 20
147.7389648761409
 30
0.0
 11
-71.5715927582218
 21
147.7389648761409
 31
0.0
 12
-71.90492609155512
 22
149.7389648761409
 32
0.0
 13
-71.90492609155512
 23
149.7389648761409
 33
0.0
  0
SOLID
  5
7DF
330
7BD
100
AcDbEntity
  8
寸法
 62
     0
100
AcDbTrace
 10
-72.23825942488845
 20
123.7389648761409
 30
0.0
 11
-71.5715927582218
 21
123.7389648761409
 31
0.0
 12
-71.90492609155512
 22
121.7389648761409
 32
0.0
 13
-71.90492609155512
 23
121.7389648761409
 33
0.0
  0
MTEXT
  5
7E0
330
7BD
100
AcDbEntity
  8
寸法
 62
     0
370
    13
100
AcDbMText
 10
-73.90492609155514
 20
135.7389648761408
 30
0.0
 40
2.5
 41
0.0
 71
     5
 72
     1
  1
28
 11
0.0000000000000001
 21
1.0
 31
0.0
 73
     1
 44
1.0
  0
POINT
  5
7E1
330
7BD
100
AcDbEntity
  8
Defpoints
 62
     0
100
AcDbPoint
 10
-51.40492609155513
 20
149.7389648761409
 30
0.0
  0
POINT
  5
7E2
330
7BD
100
AcDbEntity
  8
Defpoints
 62
     0
100
AcDbPoint
 10
-61.90492609155512
 20
121.7389648761409
 30
0.0
  0
POINT
  5
7E3
330
7BD
100
AcDbEntity
  8
Defpoints
 62
     0
100
AcDbPoint
 10
-71.90492609155512
 20
121.7389648761409
 30
0.0
  0
ENDBLK
  5
7C8
330
7BD
100
AcDbEntity
  8
0
100
AcDbBlockEnd
  0
BLOCK
  5
7F0
330
7E6
100
AcDbEntity
  8
0
100
AcDbBlockBegin
  2
*D5
 70
     1
 10
0.0
 20
0.0
 30
0.0
  3
*D5
  1

  0
LINE
  5
7FE
330
7E6
100
AcDbEntity
  8
寸法
 62
     0
370
    -2
100
AcDbLine
 10
34.09507390844487
 20
145.7389648761408
 30
0.0
 11
30.59507390844487
 21
145.7389648761408
 31
0.0
  0
LINE
  5
7FF
330
7E6
100
AcDbEntity
  8
寸法
 62
     0
370
    -2
100
AcDbLine
 10
34.09507390844487
 20
121.7389648761409
 30
0.0
 11
30.59507390844487
 21
121.7389648761409
 31
0.0
  0
LINE
  5
800
330
7E6
100
AcDbEntity
  8
寸法
 62
     0
370
    -2
100
AcDbLine
 10
31.09507390844488
 20
143.7389648761408
 30
0.0
 11
31.09507390844487
 21
123.7389648761409
 31
0.0
  0
SOLID
  5
801
330
7E6
100
AcDbEntity
  8
寸法
 62
     0
100
AcDbTrace
 10
30.76174057511154
 20
143.7389648761408
 30
0.0
 11
31.42840724177821
 21
143.7389648761408
 31
0.0
 12
31.09507390844488
 22
145.7389648761408
 32
0.0
 13
31.09507390844488
 23
145.7389648761408
 33
0.0
  0
SOLID
  5
802
330
7E6
100
AcDbEntity
  8
寸法
 62
     0
100
AcDbTrace
 10
30.76174057511154
 20
123.7389648761409
 30
0.0
 11
31.4284072417782
 21
123.7389648761409
 31
0.0
 12
31.09507390844487
 22
121.7389648761409
 32
0.0
 13
31.09507390844487
 23
121.7389648761409
 33
0.0
  0
MTEXT
  5
803
330
7E6
100
AcDbEntity
  8
寸法
 62
     0
370
    13
100
AcDbMText
 10
29.09507390844485
 20
133.7389648761408
 30
0.0
 40
2.5
 41
0.0
 71
     5
 72
     1
  1
24
 11
0.0000000000000001
 21
1.0
 31
0.0
 73
     1
 44
1.0
  0
POINT
  5
804
330
7E6
100
AcDbEntity
  8
Defpoints
 62
     0
100
AcDbPoint
 10
36.09507390844487
 20
145.7389648761408
 30
0.0
  0
POINT
  5
805
330
7E6
100
AcDbEntity
  8
Defpoints
 62
     0
100
AcDbPoint
 10
36.09507390844487
 20
121.7389648761409
 30
0.0
  0
POINT
  5
806
330
7E6
100
AcDbEntity
  8
Defpoints
 62
     0
100
AcDbPoint
 10
31.09507390844487
 20
121.7389648761409
 30
0.0
  0
ENDBLK
  5
7F1
330
7E6
100
AcDbEntity
  8
0
100
AcDbBlockEnd
  0
BLOCK
  5
7FC
330
7F2
100
AcDbEntity
  8
0
100
AcDbBlockBegin
  2
*D6
 70
     1
 10
0.0
 20
0.0
 30
0.0
  3
*D6
  1

  0
LINE
  5
810
330
7F2
100
AcDbEntity
  8
寸法
 62
     0
370
    -2
100
AcDbLine
 10
34.09507390844487
 20
149.7389648761409
 30
0.0
 11
25.59507390844487
 21
149.7389648761409
 31
0.0
  0
LINE
  5
811
330
7F2
100
AcDbEntity
  8
寸法
 62
     0
370
    -2
100
AcDbLine
 10
34.09507390844487
 20
121.7389648761409
 30
0.0
 11
25.59507390844487
 21
121.7389648761409
 31
0.0
  0
LINE
  5
812
330
7F2
100
AcDbEntity
  8
寸法
 62
     0
370
    -2
100
AcDbLine
 10
26.09507390844488
 20
147.7389648761409
 30
0.0
 11
26.09507390844487
 21
123.7389648761409
 31
0.0
  0
SOLID
  5
813
330
7F2
100
AcDbEntity
  8
寸法
 62
     0
100
AcDbTrace
 10
25.76174057511154
 20
147.7389648761409
 30
0.0
 11
26.42840724177821
 21
147.7389648761409
 31
0.0
 12
26.09507390844488
 22
149.7389648761409
 32
0.0
 13
26.09507390844488
 23
149.7389648761409
 33
0.0
  0
SOLID
  5
814
330
7F2
100
AcDbEntity
  8
寸法
 62
     0
100
AcDbTrace
 10
25.76174057511154
 20
123.7389648761409
 30
0.0
 11
26.4284072417782
 21
123.7389648761409
 31
0.0
 12
26.09507390844487
 22
121.7389648761409
 32
0.0
 13
26.09507390844487
 23
121.7389648761409
 33
0.0
  0
MTEXT
  5
815
330
7F2
100
AcDbEntity
  8
寸法
 62
     0
370
    13
100
AcDbMText
 10
24.09507390844485
 20
135.7389648761408
 30
0.0
 40
2.5
 41
0.0
 71
     5
 72
     1
  1
28
 11
0.0000000000000001
 21
1.0
 31
0.0
 73
     1
 44
1.0
  0
POINT
  5
816
330
7F2
100
AcDbEntity
  8
Defpoints
 62
     0
100
AcDbPoint
 10
36.09507390844486
 20
149.7389648761409
 30
0.0
  0
POINT
  5
817
330
7F2
100
AcDbEntity
  8
Defpoints
 62
     0
100
AcDbPoint
 10
36.09507390844487
 20
121.7389648761409
 30
0.0
  0
POINT
  5
818
330
7F2
100
AcDbEntity
  8
Defpoints
 62
     0
100
AcDbPoint
 10
26.09507390844487
 20
121.7389648761409
 30
0.0
  0
ENDBLK
  5
7FD
330
7F2
100
AcDbEntity
  8
0
100
AcDbBlockEnd
  0
BLOCK
  5
839
330
82F
100
AcDbEntity
  8
0
100
AcDbBlockBegin
  2
*D7
 70
     1
 10
0.0
 20
0.0
 30
0.0
  3
*D7
  1

  0
LINE
  5
847
330
82F
100
AcDbEntity
  8
寸法
 62
     0
370
    -2
100
AcDbLine
 10
34.09507390844487
 20
43.73896487614089
 30
0.0
 11
30.59507390844486
 21
43.73896487614089
 31
0.0
  0
LINE
  5
848
330
82F
100
AcDbEntity
  8
寸法
 62
     0
370
    -2
100
AcDbLine
 10
34.09507390844487
 20
71.7389648761409
 30
0.0
 11
30.59507390844486
 21
71.73896487614091
 31
0.0
  0
LINE
  5
849
330
82F
100
AcDbEntity
  8
寸法
 62
     0
370
    -2
100
AcDbLine
 10
31.09507390844486
 20
45.73896487614089
 30
0.0
 11
31.09507390844486
 21
69.73896487614091
 31
0.0
  0
SOLID
  5
84A
330
82F
100
AcDbEntity
  8
寸法
 62
     0
100
AcDbTrace
 10
30.76174057511153
 20
45.73896487614089
 30
0.0
 11
31.42840724177819
 21
45.73896487614089
 31
0.0
 12
31.09507390844486
 22
43.73896487614089
 32
0.0
 13
31.09507390844486
 23
43.73896487614089
 33
0.0
  0
SOLID
  5
84B
330
82F
100
AcDbEntity
  8
寸法
 62
     0
100
AcDbTrace
 10
30.76174057511153
 20
69.73896487614091
 30
0.0
 11
31.4284072417782
 21
69.73896487614091
 31
0.0
 12
31.09507390844486
 22
71.73896487614091
 32
0.0
 13
31.09507390844486
 23
71.73896487614091
 33
0.0
  0
MTEXT
  5
84C
330
82F
100
AcDbEntity
  8
寸法
 62
     0
370
    13
100
AcDbMText
 10
29.09507390844485
 20
57.73896487614091
 30
0.0
 40
2.5
 41
0.0
 71
     5
 72
     1
  1
28
 11
0.0000000000000001
 21
1.0
 31
0.0
 73
     1
 44
1.0
  0
POINT
  5
84D
330
82F
100
AcDbEntity
  8
Defpoints
 62
     0
100
AcDbPoint
 10
36.09507390844486
 20
43.73896487614089
 30
0.0
  0
POINT
  5
84E
330
82F
100
AcDbEntity
  8
Defpoints
 62
     0
100
AcDbPoint
 10
36.09507390844486
 20
71.7389648761409
 30
0.0
  0
POINT
  5
84F
330
82F
100
AcDbEntity
  8
Defpoints
 62
     0
100
AcDbPoint
 10
31.09507390844486
 20
71.73896487614091
 30
0.0
  0
ENDBLK
  5
83A
330
82F
100
AcDbEntity
  8
0
100
AcDbBlockEnd
  0
BLOCK
  5
845
330
83B
100
AcDbEntity
  8
0
100
AcDbBlockBegin
  2
*D8
 70
     1
 10
0.0
 20
0.0
 30
0.0
  3
*D8
  1

  0
LINE
  5
85B
330
83B
100
AcDbEntity
  8
寸法
 62
     0
370
    -2
100
AcDbLine
 10
86.09507390844488
 20
73.73896487614093
 30
0.0
 11
86.09507390844488
 21
77.23896487614092
 31
0.0
  0
LINE
  5
85C
330
83B
100
AcDbEntity
  8
寸法
 62
     0
370
    -2
100
AcDbLine
 10
36.09507390844486
 20
73.73896487614093
 30
0.0
 11
36.09507390844486
 21
77.23896487614092
 31
0.0
  0
LINE
  5
85D
330
83B
100
AcDbEntity
  8
寸法
 62
     0
370
    -2
100
AcDbLine
 10
84.09507390844487
 20
76.73896487614093
 30
0.0
 11
38.09507390844487
 21
76.73896487614093
 31
0.0
  0
SOLID
  5
85E
330
83B
100
AcDbEntity
  8
寸法
 62
     0
100
AcDbTrace
 10
84.09507390844487
 20
77.07229820947425
 30
0.0
 11
84.09507390844487
 21
76.40563154280759
 31
0.0
 12
86.09507390844488
 22
76.73896487614093
 32
0.0
 13
86.09507390844488
 23
76.73896487614093
 33
0.0
  0
SOLID
  5
85F
330
83B
100
AcDbEntity
  8
寸法
 62
     0
100
AcDbTrace
 10
38.09507390844487
 20
77.07229820947425
 30
0.0
 11
38.09507390844487
 21
76.40563154280759
 31
0.0
 12
36.09507390844486
 22
76.73896487614093
 32
0.0
 13
36.09507390844486
 23
76.73896487614093
 33
0.0
  0
MTEXT
  5
860
330
83B
100
AcDbEntity
  8
寸法
 62
     0
370
    13
100
AcDbMText
 10
61.09507390844488
 20
78.73896487614093
 30
0.0
 40
2.5
 41
0.0
 71
     5
 72
     1
  1
50
 73
     1
 44
1.0
  0
POINT
  5
861
330
83B
100
AcDbEntity
  8
Defpoints
 62
     0
100
AcDbPoint
 10
86.09507390844488
 20
71.73896487614093
 30
0.0
  0
POINT
  5
862
330
83B
100
AcDbEntity
  8
Defpoints
 62
     0
100
AcDbPoint
 10
36.09507390844486
 20
71.73896487614093
 30
0.0
  0
POINT
  5
863
330
83B
100
AcDbEntity
  8
Defpoints
 62
     0
100
AcDbPoint
 10
36.09507390844486
 20
76.73896487614093
 30
0.0
  0
ENDBLK
  5
846
330
83B
100
AcDbEntity
  8
0
100
AcDbBlockEnd
  0
BLOCK
  5
877
330
86D
100
AcDbEntity
  8
0
100
AcDbBlockBegin
  2
*D9
 70
     1
 10
0.0
 20
0.0
 30
0.0
  3
*D9
  1

  0
LINE
  5
879
330
86D
100
AcDbEntity
  8
寸法
 62
     0
370
    -2
100
AcDbLine
 10
154.0950739084448
 20
145.7389648761408
 30
0.0
 11
150.5950739084448
 21
145.7389648761408
 31
0.0
  0
LINE
  5
87A
330
86D
100
AcDbEntity
  8
寸法
 62
     0
370
    -2
100
AcDbLine
 10
154.0950739084448
 20
121.7389648761409
 30
0.0
 11
150.5950739084448
 21
121.7389648761409
 31
0.0
  0
LINE
  5
87B
330
86D
100
AcDbEntity
  8
寸法
 62
     0
370
    -2
100
AcDbLine
 10
151.0950739084448
 20
143.7389648761408
 30
0.0
 11
151.0950739084448
 21
123.7389648761409
 31
0.0
  0
SOLID
  5
87C
330
86D
100
AcDbEntity
  8
寸法
 62
     0
100
AcDbTrace
 10
150.7617405751115
 20
143.7389648761408
 30
0.0
 11
151.4284072417782
 21
143.7389648761408
 31
0.0
 12
151.0950739084448
 22
145.7389648761408
 32
0.0
 13
151.0950739084448
 23
145.7389648761408
 33
0.0
  0
SOLID
  5
87D
330
86D
100
AcDbEntity
  8
寸法
 62
     0
100
AcDbTrace
 10
150.7617405751115
 20
123.7389648761409
 30
0.0
 11
151.4284072417782
 21
123.7389648761409
 31
0.0
 12
151.0950739084448
 22
121.7389648761409
 32
0.0
 13
151.0950739084448
 23
121.7389648761409
 33
0.0
  0
MTEXT
  5
87E
330
86D
100
AcDbEntity
  8
寸法
 62
     0
370
    13
100
AcDbMText
 10
149.0950739084448
 20
133.7389648761409
 30
0.0
 40
2.5
 41
0.0
 71
     5
 72
     1
  1
24
 11
0.0000000000000001
 21
1.0
 31
0.0
 73
     1
 44
1.0
  0
POINT
  5
87F
330
86D
100
AcDbEntity
  8
Defpoints
 62
     0
100
AcDbPoint
 10
156.0950739084448
 20
145.7389648761408
 30
0.0
  0
POINT
  5
880
330
86D
100
AcDbEntity
  8
Defpoints
 62
     0
100
AcDbPoint
 10
156.0950739084448
 20
121.7389648761409
 30
0.0
  0
POINT
  5
881
330
86D
100
AcDbEntity
  8
Defpoints
 62
     0
100
AcDbPoint
 10
151.0950739084448
 20
121.7389648761409
 30
0.0
  0
ENDBLK
  5
878
330
86D
100
AcDbEntity
  8
0
100
AcDbBlockEnd
  0
BLOCK
  5
88D
330
883
100
AcDbEntity
  8
0
100
AcDbBlockBegin
  2
*D10
 70
     1
 10
0.0
 20
0.0
 30
0.0
  3
*D10
  1

  0
LINE
  5
8AA
330
883
100
AcDbEntity
  8
寸法
 62
     0
370
    -2
100
AcDbLine
 10
-61.90492609155512
 20
119.7389648761409
 30
0.0
 11
-61.90492609155512
 21
116.2389648761408
 31
0.0
  0
LINE
  5
8AB
330
883
100
AcDbEntity
  8
寸法
 62
     0
370
    -2
100
AcDbLine
 10
-33.90492609155512
 20
119.7389648761409
 30
0.0
 11
-33.90492609155512
 21
116.2389648761408
 31
0.0
  0
LINE
  5
8AC
330
883
100
AcDbEntity
  8
寸法
 62
     0
370
    -2
100
AcDbLine
 10
-59.90492609155513
 20
116.7389648761408
 30
0.0
 11
-35.90492609155512
 21
116.7389648761408
 31
0.0
  0
SOLID
  5
8AD
330
883
100
AcDbEntity
  8
寸法
 62
     0
100
AcDbTrace
 10
-59.90492609155513
 20
117.0722982094742
 30
0.0
 11
-59.90492609155513
 21
116.4056315428075
 31
0.0
 12
-61.90492609155512
 22
116.7389648761408
 32
0.0
 13
-61.90492609155512
 23
116.7389648761408
 33
0.0
  0
SOLID
  5
8AE
330
883
100
AcDbEntity
  8
寸法
 62
     0
100
AcDbTrace
 10
-35.90492609155512
 20
117.0722982094742
 30
0.0
 11
-35.90492609155512
 21
116.4056315428075
 31
0.0
 12
-33.90492609155512
 22
116.7389648761408
 32
0.0
 13
-33.90492609155512
 23
116.7389648761408
 33
0.0
  0
MTEXT
  5
8AF
330
883
100
AcDbEntity
  8
寸法
 62
     0
370
    13
100
AcDbMText
 10
-47.90492609155513
 20
118.7389648761408
 30
0.0
 40
2.5
 41
0.0
 71
     5
 72
     1
  1
28
 73
     1
 44
1.0
  0
POINT
  5
8B0
330
883
100
AcDbEntity
  8
Defpoints
 62
     0
100
AcDbPoint
 10
-61.90492609155512
 20
121.7389648761409
 30
0.0
  0
POINT
  5
8B1
330
883
100
AcDbEntity
  8
Defpoints
 62
     0
100
AcDbPoint
 10
-33.90492609155512
 20
121.7389648761409
 30
0.0
  0
POINT
  5
8B2
330
883
100
AcDbEntity
  8
Defpoints
 62
     0
100
AcDbPoint
 10
-33.90492609155512
 20
116.7389648761408
 30
0.0
  0
ENDBLK
  5
88E
330
883
100
AcDbEntity
  8
0
100
AcDbBlockEnd
  0
BLOCK
  5
8BE
330
8B4
100
AcDbEntity
  8
0
100
AcDbBlockBegin
  2
*D11
 70
     1
 10
0.0
 20
0.0
 30
0.0
  3
*D11
  1

  0
LINE
  5
8C0
330
8B4
100
AcDbEntity
  8
寸法
 62
     0
370
    -2
100
AcDbLine
 10
156.0950739084448
 20
119.7389648761409
 30
0.0
 11
156.0950739084448
 21
116.2389648761408
 31
0.0
  0
LINE
  5
8C1
330
8B4
100
AcDbEntity
  8
寸法
 62
     0
370
    -2
100
AcDbLine
 10
184.0950739084448
 20
119.7389648761409
 30
0.0
 11
184.0950739084448
 21
116.2389648761408
 31
0.0
  0
LINE
  5
8C2
330
8B4
100
AcDbEntity
  8
寸法
 62
     0
370
    -2
100
AcDbLine
 10
158.0950739084448
 20
116.7389648761408
 30
0.0
 11
182.0950739084448
 21
116.7389648761408
 31
0.0
  0
SOLID
  5
8C3
330
8B4
100
AcDbEntity
  8
寸法
 62
     0
100
AcDbTrace
 10
158.0950739084448
 20
117.0722982094742
 30
0.0
 11
158.0950739084448
 21
116.4056315428075
 31
0.0
 12
156.0950739084448
 22
116.7389648761408
 32
0.0
 13
156.0950739084448
 23
116.7389648761408
 33
0.0
  0
SOLID
  5
8C4
330
8B4
100
AcDbEntity
  8
寸法
 62
     0
100
AcDbTrace
 10
182.0950739084448
 20
117.0722982094742
 30
0.0
 11
182.0950739084448
 21
116.4056315428075
 31
0.0
 12
184.0950739084448
 22
116.7389648761408
 32
0.0
 13
184.0950739084448
 23
116.7389648761408
 33
0.0
  0
MTEXT
  5
8C5
330
8B4
100
AcDbEntity
  8
寸法
 62
     0
370
    13
100
AcDbMText
 10
170.0950739084448
 20
118.7389648761408
 30
0.0
 40
2.5
 41
0.0
 71
     5
 72
     1
  1
28
 73
     1
 44
1.0
  0
POINT
  5
8C6
330
8B4
100
AcDbEntity
  8
Defpoints
 62
     0
100
AcDbPoint
 10
156.0950739084448
 20
121.7389648761409
 30
0.0
  0
POINT
  5
8C7
330
8B4
100
AcDbEntity
  8
Defpoints
 62
     0
100
AcDbPoint
 10
184.0950739084448
 20
121.7389648761409
 30
0.0
  0
POINT
  5
8C8
330
8B4
100
AcDbEntity
  8
Defpoints
 62
     0
100
AcDbPoint
 10
184.0950739084448
 20
116.7389648761408
 30
0.0
  0
ENDBLK
  5
8BF
330
8B4
100
AcDbEntity
  8
0
100
AcDbBlockEnd
  0
ENDSEC
  0
SECTION
  2
ENTITIES
  0
MTEXT
  5
388
330
1F
100
AcDbEntity
  8
文字
370
    13
100
AcDbMText
 10
6.82200397177462
 20
8.327402715707421
 30
0.0
 40
7.5
 41
253.5826
 71
     1
 72
     5
  1
EOS　ホールド付きストッパー　1171
 73
     1
 44
1.0
  0
LWPOLYLINE
  5
5AF
330
1F
100
AcDbEntity
  8
0
100
AcDbPolyline
 90
        8
 70
     0
 43
0.0
 10
83.09507390844487
 20
121.7389648761409
 10
86.09507390844488
 20
121.7389648761409
 10
86.09507390844488
 20
141.7389648761409
 42
0.4142135623730951
 10
82.09507390844487
 20
145.7389648761409
 10
40.09507390844486
 20
145.7389648761408
 42
0.4142135623730951
 10
36.09507390844486
 20
141.7389648761408
 10
36.09507390844486
 20
121.7389648761409
 10
39.09507390844487
 20
121.7389648761409
  0
LWPOLYLINE
  5
5B0
330
1F
100
AcDbEntity
  8
0
100
AcDbPolyline
 90
        6
 70
     0
 43
0.0
 10
83.09507390844487
 20
121.7389648761409
 10
83.09507390844485
 20
141.7389648761408
 42
0.4142135623730951
 10
82.09507390844484
 20
142.7389648761408
 10
40.09507390844487
 20
142.7389648761409
 42
0.4142135623730951
 10
39.09507390844487
 20
141.7389648761409
 10
39.09507390844487
 20
121.7389648761409
  0
LINE
  5
5B3
330
1F
100
AcDbEntity
  8
0
100
AcDbLine
 10
36.09507390844486
 20
141.7389648761408
 30
0.0
 11
36.09507390844486
 21
149.7389648761409
 31
0.0
  0
LINE
  5
5B4
330
1F
100
AcDbEntity
  8
0
100
AcDbLine
 10
36.09507390844486
 20
149.7389648761409
 30
0.0
 11
39.09507390844487
 21
149.7389648761409
 31
0.0
  0
LINE
  5
5B5
330
1F
100
AcDbEntity
  8
0
100
AcDbLine
 10
39.09507390844487
 20
149.7389648761409
 30
0.0
 11
39.09507390844487
 21
146.7389648761408
 31
0.0
  0
LWPOLYLINE
  5
5C7
102
{ACAD_REACTORS
330
606
102
}
330
1F
100
AcDbEntity
  8
0
 62
     3
100
AcDbPolyline
 90
        6
 70
     0
 43
0.0
 10
55.09507390844486
 20
142.7389648761409
 10
55.09507390844486
 20
133.4389648761408
 10
55.69507390844486
 20
132.8389648761408
 10
60.49507390844485
 20
132.8389648761408
 10
61.09507390844485
 20
133.4389648761408
 10
61.09507390844485
 20
142.7389648761409
  0
LWPOLYLINE
  5
5C8
102
{ACAD_REACTORS
330
710
102
}
330
1F
100
AcDbEntity
  8
0
100
AcDbPolyline
 90
        6
 70
     1
 43
0.0
 10
55.2076821856345
 20
218.7400740414023
 10
52.32029046282412
 20
213.7389648761409
 10
55.2076821856345
 20
208.7378557108794
 10
60.98246563125528
 20
208.7378557108794
 10
63.86985735406568
 20
213.7389648761409
 10
60.98246563125531
 20
218.7400740414023
  0
LINE
  5
5F5
102
{ACAD_REACTORS
330
604
330
606
102
}
330
1F
100
AcDbEntity
  8
0
 62
     3
100
AcDbLine
 10
53.76398632422927
 20
152.2389648761409
 30
0.0
 11
62.42616149266045
 21
152.2389648761409
 31
0.0
  0
LINE
  5
5F6
102
{ACAD_REACTORS
330
604
330
606
102
}
330
1F
100
AcDbEntity
  8
0
 62
     3
100
AcDbLine
 10
52.32029046282407
 20
147.2389648761408
 30
0.0
 11
63.86985735406565
 21
147.2389648761408
 31
0.0
  0
LINE
  5
5F7
102
{ACAD_REACTORS
330
604
330
606
102
}
330
1F
100
AcDbEntity
  8
0
 62
     3
100
AcDbLine
 10
55.20768218563446
 20
151.4054466819306
 30
0.0
 11
55.20768218563446
 21
147.2389648761408
 31
0.0
  0
LINE
  5
5F8
102
{ACAD_REACTORS
330
604
330
606
102
}
330
1F
100
AcDbEntity
  8
0
 62
     3
100
AcDbLine
 10
60.98246563125525
 20
151.4054466819306
 30
0.0
 11
60.98246563125525
 21
147.2389648761408
 31
0.0
  0
LINE
  5
5F9
102
{ACAD_REACTORS
330
604
330
606
102
}
330
1F
100
AcDbEntity
  8
0
 62
     3
100
AcDbLine
 10
63.86985735406565
 20
151.4054466819306
 30
0.0
 11
63.86985735406565
 21
147.2389648761408
 31
0.0
  0
LINE
  5
5FA
102
{ACAD_REACTORS
330
604
330
606
102
}
330
1F
100
AcDbEntity
  8
0
 62
     3
100
AcDbLine
 10
52.32029046282407
 20
151.4054466819306
 30
0.0
 11
52.32029046282407
 21
147.2389648761408
 31
0.0
  0
CIRCLE
  5
5FC
102
{ACAD_REACTORS
330
710
102
}
330
1F
100
AcDbEntity
  8
0
100
AcDbCircle
 10
58.09507390844487
 20
213.7389648761409
 30
0.0
 40
5.001109165261434
  0
CIRCLE
  5
5FD
102
{ACAD_REACTORS
330
710
102
}
330
1F
100
AcDbEntity
  8
0
100
AcDbCircle
 10
58.09507390844487
 20
213.7389648761409
 30
0.0
 40
3.0
  0
ARC
  5
601
102
{ACAD_REACTORS
330
604
330
606
102
}
330
1F
100
AcDbEntity
  8
0
 62
     3
100
AcDbCircle
 10
58.09507390844486
 20
146.8210966137742
 30
0.0
 40
5.417868262366598
100
AcDbArc
 50
57.79577249602823
 51
122.2042275039717
  0
ARC
  5
602
102
{ACAD_REACTORS
330
604
330
606
102
}
330
1F
100
AcDbEntity
  8
0
 62
     3
100
AcDbCircle
 10
53.76398632422927
 20
150.5719284877203
 30
0.0
 40
1.66703638842048
100
AcDbArc
 50
30.00000000000065
 51
149.9999999999993
  0
ARC
  5
603
102
{ACAD_REACTORS
330
604
330
606
102
}
330
1F
100
AcDbEntity
  8
0
 62
     3
100
AcDbCircle
 10
62.42616149266045
 20
150.5719284877203
 30
0.0
 40
1.66703638842048
100
AcDbArc
 50
30.00000000000068
 51
149.9999999999993
  0
LWPOLYLINE
  5
605
330
1F
100
AcDbEntity
  8
0
 62
     3
100
AcDbPolyline
 90
        6
 70
     0
 43
0.0
 10
70.09507390844487
 20
142.7389648761408
 10
70.09507390844487
 20
133.3389648761408
 10
70.69507390844487
 20
132.7389648761408
 10
75.49507390844485
 20
132.7389648761408
 10
76.09507390844488
 20
133.3389648761408
 10
76.09507390844488
 20
142.7389648761408
  0
LWPOLYLINE
  5
614
330
1F
100
AcDbEntity
  8
0
100
AcDbPolyline
 90
        4
 70
     1
 43
0.0
 10
86.09507390844488
 20
129.7389648761408
 10
97.09507390844487
 20
129.7389648761408
 10
97.09507390844487
 20
141.7389648761409
 10
86.09507390844488
 20
141.7389648761409
  0
LWPOLYLINE
  5
615
330
1F
100
AcDbEntity
  8
0
100
AcDbPolyline
 90
        6
 70
     1
 43
0.0
 10
79.5950739084449
 20
133.2389648761409
 10
83.09507390844485
 20
133.2389648761409
 10
83.09507390844485
 20
138.2389648761408
 10
79.59507390844487
 20
138.2389648761408
 42
0.4142135623730951
 10
77.09507390844487
 20
135.7389648761408
 10
77.0950739084449
 20
135.7389648761409
 42
0.4142135623730966
  0
LINE
  5
623
102
{ACAD_REACTORS
330
657
102
}
330
1F
100
AcDbEntity
  8
0
100
AcDbLine
 10
102.1929346291061
 20
150.9526927574014
 30
0.0
 11
112.1565067677955
 21
148.7784733027158
 31
0.0
  0
LINE
  5
624
102
{ACAD_REACTORS
330
657
102
}
330
1F
100
AcDbEntity
  8
0
100
AcDbLine
 10
102.243475468249
 20
151.965196306434
 30
0.0
 11
112.0344872930831
 21
149.8286324220869
 31
0.0
  0
LINE
  5
625
102
{ACAD_REACTORS
330
657
102
}
330
1F
100
AcDbEntity
  8
0
100
AcDbLine
 10
112.1565067677955
 20
148.7784733027158
 30
0.0
 11
124.2593935482959
 21
154.5681305964067
 31
0.0
  0
LINE
  5
626
102
{ACAD_REACTORS
330
657
102
}
330
1F
100
AcDbEntity
  8
0
100
AcDbLine
 10
112.0344872930831
 20
149.8286324220869
 30
0.0
 11
123.8278579724585
 21
155.4702265152462
 31
0.0
  0
LINE
  5
627
102
{ACAD_REACTORS
330
657
102
}
330
1F
100
AcDbEntity
  8
0
100
AcDbLine
 10
57.04616344859704
 20
146.7399709394371
 30
0.0
 11
102.2434754682489
 21
151.965196306434
 31
0.0
  0
LINE
  5
628
102
{ACAD_REACTORS
330
657
102
}
330
1F
100
AcDbEntity
  8
0
100
AcDbLine
 10
57.09507390844486
 20
145.7389648761408
 30
0.0
 11
102.1929346291061
 21
150.9526927574014
 31
0.0
  0
LINE
  5
629
102
{ACAD_REACTORS
330
657
102
}
330
1F
100
AcDbEntity
  8
0
100
AcDbLine
 10
57.02870093323415
 20
146.7389648761408
 30
0.0
 11
37.09507390844486
 21
146.7389648761408
 31
0.0
  0
LINE
  5
62A
102
{ACAD_REACTORS
330
657
102
}
330
1F
100
AcDbEntity
  8
0
100
AcDbLine
 10
37.09507390844486
 20
145.7389648761408
 30
0.0
 11
57.09507390844486
 21
145.7389648761408
 31
0.0
  0
LINE
  5
62B
102
{ACAD_REACTORS
330
657
102
}
330
1F
100
AcDbEntity
  8
0
100
AcDbLine
 10
37.09507390844486
 20
146.7389648761408
 30
0.0
 11
37.09507390844486
 21
145.7389648761408
 31
0.0
  0
LINE
  5
62C
102
{ACAD_REACTORS
330
657
102
}
330
1F
100
AcDbEntity
  8
0
100
AcDbLine
 10
124.2593935482959
 20
154.5681305964067
 30
0.0
 11
123.8278579724585
 21
155.4702265152462
 31
0.0
  0
LWPOLYLINE
  5
673
330
1F
100
AcDbEntity
  8
0
100
AcDbPolyline
 90
        4
 70
     1
 43
0.0
 10
156.0950739084448
 20
121.7389648761409
 10
184.0950739084448
 20
121.7389648761409
 10
184.0950739084448
 20
145.7389648761409
 10
156.0950739084448
 20
145.7389648761409
  0
CIRCLE
  5
68E
330
1F
100
AcDbEntity
  8
0
100
AcDbCircle
 10
170.0950739084448
 20
135.7389648761408
 30
0.0
 40
6.0
  0
LINE
  5
68F
330
1F
100
AcDbEntity
  8
0
100
AcDbLine
 10
164.0950739084448
 20
155.4702265152462
 30
0.0
 11
176.0950739084448
 21
155.4702265152462
 31
0.0
  0
LINE
  5
690
330
1F
100
AcDbEntity
  8
0
100
AcDbLine
 10
164.0950739084448
 20
154.5681305964067
 30
0.0
 11
176.0950739084448
 21
154.5681305964067
 31
0.0
  0
LINE
  5
692
330
1F
100
AcDbEntity
  8
0
100
AcDbLine
 10
164.0950739084448
 20
150.1321147134486
 30
0.0
 11
164.0950739084448
 21
155.4702265152462
 31
0.0
  0
LINE
  5
693
330
1F
100
AcDbEntity
  8
0
100
AcDbLine
 10
176.0950739084448
 20
150.1321147134486
 30
0.0
 11
176.0950739084448
 21
155.4702265152462
 31
0.0
  0
LINE
  5
697
330
1F
100
AcDbEntity
  8
0
100
AcDbLine
 10
157.0950739084448
 20
146.7389648761409
 30
0.0
 11
164.0950739084448
 21
150.1321147134486
 31
0.0
  0
LINE
  5
698
330
1F
100
AcDbEntity
  8
0
100
AcDbLine
 10
176.0950739084448
 20
150.1321147134486
 30
0.0
 11
183.0950739084448
 21
146.7389648761409
 31
0.0
  0
LINE
  5
699
330
1F
100
AcDbEntity
  8
0
100
AcDbLine
 10
157.0950739084448
 20
146.7389648761409
 30
0.0
 11
157.0950739084448
 21
145.7389648761409
 31
0.0
  0
LINE
  5
69A
330
1F
100
AcDbEntity
  8
0
100
AcDbLine
 10
183.0950739084448
 20
146.7389648761409
 30
0.0
 11
183.0950739084448
 21
145.7389648761409
 31
0.0
  0
LINE
  5
69B
330
1F
100
AcDbEntity
  8
0
100
AcDbLine
 10
157.0950739084448
 20
146.7389648761409
 30
0.0
 11
183.0950739084448
 21
146.7389648761409
 31
0.0
  0
LINE
  5
69C
330
1F
100
AcDbEntity
  8
0
100
AcDbLine
 10
164.0950739084448
 20
150.1321147134486
 30
0.0
 11
176.0950739084448
 21
150.1321147134486
 31
0.0
  0
LINE
  5
6AA
330
1F
100
AcDbEntity
  8
0
100
AcDbLine
 10
-53.90492609155512
 20
150.1321147134486
 30
0.0
 11
-60.90492609155512
 21
146.7389648761408
 31
0.0
  0
LINE
  5
6AB
330
1F
100
AcDbEntity
  8
0
100
AcDbLine
 10
-34.90492609155512
 20
146.7389648761408
 30
0.0
 11
-41.90492609155512
 21
150.1321147134486
 31
0.0
  0
LINE
  5
6AE
330
1F
100
AcDbEntity
  8
0
100
AcDbLine
 10
-34.90492609155512
 20
146.7389648761408
 30
0.0
 11
-34.90492609155512
 21
145.7389648761408
 31
0.0
  0
LINE
  5
6B0
330
1F
100
AcDbEntity
  8
0
100
AcDbLine
 10
-60.90492609155512
 20
146.7389648761408
 30
0.0
 11
-60.90492609155512
 21
145.7389648761408
 31
0.0
  0
LINE
  5
6B2
330
1F
100
AcDbEntity
  8
0
100
AcDbLine
 10
-41.90492609155512
 20
155.4702265152461
 30
0.0
 11
-53.90492609155512
 21
155.4702265152461
 31
0.0
  0
LINE
  5
6B4
330
1F
100
AcDbEntity
  8
0
100
AcDbLine
 10
-41.90492609155512
 20
150.1321147134486
 30
0.0
 11
-41.90492609155512
 21
155.4702265152462
 31
0.0
  0
LINE
  5
6B5
330
1F
100
AcDbEntity
  8
0
100
AcDbLine
 10
-53.90492609155512
 20
150.1321147134486
 30
0.0
 11
-53.90492609155512
 21
155.4702265152462
 31
0.0
  0
CIRCLE
  5
6B6
330
1F
100
AcDbEntity
  8
0
100
AcDbCircle
 10
-55.90492609155512
 20
127.7389648761408
 30
0.0
 40
2.5
  0
CIRCLE
  5
6B7
330
1F
100
AcDbEntity
  8
0
100
AcDbCircle
 10
-39.90492609155512
 20
133.7389648761408
 30
0.0
 40
2.5
  0
LWPOLYLINE
  5
6C5
330
1F
100
AcDbEntity
  8
0
100
AcDbPolyline
 90
        3
 70
     0
 43
0.0
 10
-41.40492609155512
 20
145.7389648761409
 10
-41.40492609155512
 20
141.7389648761409
 10
-45.40492609155513
 20
141.7389648761409
  0
LINE
  5
6C6
330
1F
100
AcDbEntity
  8
0
100
AcDbLine
 10
-41.40492609155512
 20
145.7389648761409
 30
0.0
 11
-33.90492609155512
 21
145.7389648761409
 31
0.0
  0
LINE
  5
6C7
330
1F
100
AcDbEntity
  8
0
100
AcDbLine
 10
-33.90492609155512
 20
145.7389648761409
 30
0.0
 11
-33.90492609155512
 21
121.7389648761409
 31
0.0
  0
LINE
  5
6C8
330
1F
100
AcDbEntity
  8
0
100
AcDbLine
 10
-33.90492609155512
 20
121.7389648761409
 30
0.0
 11
-61.90492609155512
 21
121.7389648761409
 31
0.0
  0
LINE
  5
6C9
330
1F
100
AcDbEntity
  8
0
100
AcDbLine
 10
-61.90492609155512
 20
121.7389648761409
 30
0.0
 11
-61.90492609155512
 21
145.7389648761409
 31
0.0
  0
LINE
  5
6CA
330
1F
100
AcDbEntity
  8
0
100
AcDbLine
 10
-61.90492609155512
 20
145.7389648761409
 30
0.0
 11
-54.40492609155512
 21
145.7389648761409
 31
0.0
  0
LINE
  5
6CB
330
1F
100
AcDbEntity
  8
0
100
AcDbLine
 10
-44.40492609155513
 20
149.7389648761409
 30
0.0
 11
-51.40492609155513
 21
149.7389648761409
 31
0.0
  0
LINE
  5
6CC
330
1F
100
AcDbEntity
  8
0
100
AcDbLine
 10
-44.40492609155512
 20
147.7389648761409
 30
0.0
 11
-45.40492609155513
 21
147.7389648761408
 31
0.0
  0
LINE
  5
6CD
330
1F
100
AcDbEntity
  8
0
100
AcDbLine
 10
-44.40492609155512
 20
147.7389648761409
 30
0.0
 11
-44.40492609155513
 21
149.7389648761409
 31
0.0
  0
LINE
  5
6CE
330
1F
100
AcDbEntity
  8
0
100
AcDbLine
 10
-51.40492609155512
 20
147.7389648761409
 30
0.0
 11
-51.40492609155513
 21
149.7389648761409
 31
0.0
  0
LINE
  5
6CF
330
1F
100
AcDbEntity
  8
0
100
AcDbLine
 10
-50.40492609155513
 20
147.7389648761409
 30
0.0
 11
-50.40492609155514
 21
141.7389648761409
 31
0.0
  0
LINE
  5
6D0
330
1F
100
AcDbEntity
  8
0
100
AcDbLine
 10
-45.40492609155513
 20
147.7389648761409
 30
0.0
 11
-45.40492609155513
 21
141.7389648761409
 31
0.0
  0
LINE
  5
6D1
330
1F
100
AcDbEntity
  8
0
100
AcDbLine
 10
-50.40492609155513
 20
147.7389648761408
 30
0.0
 11
-51.40492609155512
 21
147.7389648761409
 31
0.0
  0
LWPOLYLINE
  5
6D2
330
1F
100
AcDbEntity
  8
0
100
AcDbPolyline
 90
        3
 70
     0
 43
0.0
 10
-50.40492609155514
 20
141.7389648761409
 10
-54.40492609155512
 20
141.7389648761409
 10
-54.40492609155512
 20
145.7389648761409
  0
LINE
  5
6D3
330
1F
100
AcDbEntity
  8
0
100
AcDbLine
 10
-34.90492609155512
 20
145.7389648761408
 30
0.0
 11
-45.40492609155512
 21
145.7389648761408
 31
0.0
  0
LINE
  5
6D6
330
1F
100
AcDbEntity
  8
0
100
AcDbLine
 10
-50.40492609155512
 20
145.7389648761408
 30
0.0
 11
-60.90492609155512
 21
145.7389648761408
 31
0.0
  0
ARC
  5
6D7
102
{ACAD_REACTORS
330
6E2
102
}
330
1F
100
AcDbEntity
  8
0
 62
     3
100
AcDbCircle
 10
-52.23601367577071
 20
150.0719284877203
 30
0.0
 40
1.66703638842048
100
AcDbArc
 50
30.00000000000065
 51
149.9999999999993
  0
LINE
  5
6D8
102
{ACAD_REACTORS
330
6E2
102
}
330
1F
100
AcDbEntity
  8
0
 62
     3
100
AcDbLine
 10
-52.23601367577071
 20
151.7389648761408
 30
0.0
 11
-43.57383850733953
 21
151.7389648761408
 31
0.0
  0
ARC
  5
6D9
102
{ACAD_REACTORS
330
6E2
102
}
330
1F
100
AcDbEntity
  8
0
 62
     3
100
AcDbCircle
 10
-43.57383850733953
 20
150.0719284877203
 30
0.0
 40
1.66703638842048
100
AcDbArc
 50
30.00000000000068
 51
149.9999999999993
  0
LINE
  5
6DA
102
{ACAD_REACTORS
330
6E2
102
}
330
1F
100
AcDbEntity
  8
0
 62
     3
100
AcDbLine
 10
-53.67970953717591
 20
146.7389648761408
 30
0.0
 11
-50.40492609155513
 21
146.7389648761408
 31
0.0
  0
LINE
  5
6DB
102
{ACAD_REACTORS
330
6E2
102
}
330
1F
100
AcDbEntity
  8
0
 62
     3
100
AcDbLine
 10
-53.67970953717591
 20
150.9054466819306
 30
0.0
 11
-53.67970953717591
 21
146.7389648761408
 31
0.0
  0
ARC
  5
6DC
102
{ACAD_REACTORS
330
6E2
102
}
330
1F
100
AcDbEntity
  8
0
 62
     3
100
AcDbCircle
 10
-47.90492609155513
 20
146.3210966137742
 30
0.0
 40
5.417868262366598
100
AcDbArc
 50
57.79577249602823
 51
122.2042275039717
  0
LINE
  5
6DD
102
{ACAD_REACTORS
330
6E2
102
}
330
1F
100
AcDbEntity
  8
0
 62
     3
100
AcDbLine
 10
-50.79231781436551
 20
150.9054466819306
 30
0.0
 11
-50.79231781436551
 21
149.7389648761409
 31
0.0
  0
LINE
  5
6DE
102
{ACAD_REACTORS
330
6E2
102
}
330
1F
100
AcDbEntity
  8
0
 62
     3
100
AcDbLine
 10
-45.01753436874473
 20
150.9054466819306
 30
0.0
 11
-45.01753436874473
 21
149.7389648761409
 31
0.0
  0
LINE
  5
6DF
102
{ACAD_REACTORS
330
6E2
102
}
330
1F
100
AcDbEntity
  8
0
 62
     3
100
AcDbLine
 10
-42.13014264593433
 20
150.9054466819306
 30
0.0
 11
-42.13014264593433
 21
146.7389648761408
 31
0.0
  0
LINE
  5
6E3
330
1F
100
AcDbEntity
  8
0
100
AcDbLine
 10
-60.90492609155512
 20
146.7389648761408
 30
0.0
 11
-53.67970953717591
 21
146.7389648761408
 31
0.0
  0
LINE
  5
6E4
330
1F
100
AcDbEntity
  8
0
100
AcDbLine
 10
-42.13014264593433
 20
146.7389648761408
 30
0.0
 11
-34.90492609155512
 21
146.7389648761408
 31
0.0
  0
LINE
  5
6E5
330
1F
100
AcDbEntity
  8
0
100
AcDbLine
 10
-45.40492609155513
 20
146.7389648761408
 30
0.0
 11
-42.13014264593433
 21
146.7389648761408
 31
0.0
  0
LINE
  5
6E6
330
1F
100
AcDbEntity
  8
0
 62
     3
100
AcDbLine
 10
-50.79231781436551
 20
147.7389648761409
 30
0.0
 11
-50.79231781436551
 21
146.7389648761408
 31
0.0
  0
LWPOLYLINE
  5
6E7
330
1F
100
AcDbEntity
  8
0
 62
     3
100
AcDbPolyline
 90
        6
 70
     0
 43
0.0
 10
-44.90492609155512
 20
151.7389648761408
 10
-44.90492609155512
 20
151.7389648761408
 10
-45.50492609155512
 20
152.3389648761408
 10
-50.30492609155512
 20
152.3389648761408
 10
-50.90492609155512
 20
151.7389648761408
 10
-50.90492609155512
 20
151.7389648761408
  0
LINE
  5
6E8
330
1F
100
AcDbEntity
  8
0
 62
     3
100
AcDbLine
 10
-45.01753436874473
 20
147.7389648761408
 30
0.0
 11
-45.01753436874473
 21
146.7389648761408
 31
0.0
  0
LWPOLYLINE
  5
6E9
330
1F
100
AcDbEntity
  8
0
 62
     3
100
AcDbPolyline
 90
        2
 70
     0
 43
0.0
 10
61.09507390844486
 20
145.7389648761409
 10
61.09507390844486
 20
146.0857924948756
  0
LWPOLYLINE
  5
6EA
330
1F
100
AcDbEntity
  8
0
 62
     3
100
AcDbPolyline
 90
        6
 70
     0
 43
0.0
 10
61.09507390844486
 20
147.092453057612
 10
61.09507390844486
 20
152.2389648761409
 10
60.49507390844485
 20
152.8389648761408
 10
55.69507390844486
 20
152.8389648761408
 10
55.09507390844486
 20
152.2389648761408
 10
55.09507390844486
 20
146.7389648761408
  0
LWPOLYLINE
  5
6EB
330
1F
100
AcDbEntity
  8
0
 62
     3
100
AcDbPolyline
 90
        2
 70
     0
 43
0.0
 10
76.09507390844488
 20
145.7389648761409
 10
76.09507390844488
 20
147.8199305885498
  0
LWPOLYLINE
  5
6EC
330
1F
100
AcDbEntity
  8
0
 62
     3
100
AcDbPolyline
 90
        6
 70
     0
 43
0.0
 10
76.09507390844488
 20
148.8265911512861
 10
76.09507390844488
 20
152.1389648761409
 10
75.49507390844488
 20
152.7389648761408
 10
70.69507390844487
 20
152.7389648761408
 10
70.09507390844487
 20
152.1389648761408
 10
70.09507390844487
 20
148.1329359138165
  0
LWPOLYLINE
  5
6ED
330
1F
100
AcDbEntity
  8
0
 62
     3
100
AcDbPolyline
 90
        2
 70
     0
 43
0.0
 10
70.09507390844487
 20
147.1262753510801
 10
70.09507390844487
 20
145.7389648761409
  0
LWPOLYLINE
  5
70D
330
1F
100
AcDbEntity
  8
0
100
AcDbPolyline
 90
        6
 70
     0
 43
0.0
 10
86.09507390844488
 20
224.0167426539186
 10
86.09507390844488
 20
227.7389648761408
 10
36.09507390844486
 20
227.7389648761408
 10
36.09507390844486
 20
199.7389648761409
 10
86.09507390844488
 20
199.7389648761409
 10
86.09507390844488
 20
203.4611870983632
  0
LINE
  5
70E
330
1F
100
AcDbEntity
  8
0
100
AcDbLine
 10
39.09507390844487
 20
145.7389648761409
 30
0.0
 11
39.09507390844487
 21
145.6119482223483
 31
0.0
  0
LWPOLYLINE
  5
70F
330
1F
100
AcDbEntity
  8
0
100
AcDbPolyline
 90
        4
 70
     1
 43
0.0
 10
36.09507390844486
 20
210.2389648761409
 10
39.09507390844487
 20
210.2389648761409
 10
39.09507390844487
 20
217.2389648761408
 10
36.09507390844486
 20
217.2389648761408
  0
CIRCLE
  5
711
330
1F
100
AcDbEntity
  8
0
100
AcDbCircle
 10
73.09507390844487
 20
213.7389648761409
 30
0.0
 40
3.0
  0
LINE
  5
712
330
1F
100
AcDbEntity
  8
0
100
AcDbLine
 10
37.09507390844487
 20
226.7389648761409
 30
0.0
 11
79.09507390844487
 21
226.7389648761408
 31
0.0
  0
LINE
  5
713
330
1F
100
AcDbEntity
  8
0
100
AcDbLine
 10
37.09507390844487
 20
200.7389648761408
 30
0.0
 11
79.09507390844481
 21
200.738964876141
 31
0.0
  0
LINE
  5
714
330
1F
100
AcDbEntity
  8
0
100
AcDbLine
 10
37.09507390844487
 20
226.7389648761409
 30
0.0
 11
37.09507390844487
 21
217.2389648761408
 31
0.0
  0
LINE
  5
715
330
1F
100
AcDbEntity
  8
0
100
AcDbLine
 10
37.09507390844487
 20
210.2389648761409
 30
0.0
 11
37.09507390844487
 21
200.7389648761408
 31
0.0
  0
ARC
  5
716
330
1F
100
AcDbEntity
  8
0
100
AcDbCircle
 10
40.59507390844486
 20
213.7389648761409
 30
0.0
 40
2.5
100
AcDbArc
 50
270.0
 51
90.0
  0
LINE
  5
726
330
1F
100
AcDbEntity
  8
0
100
AcDbLine
 10
40.59507390844486
 20
216.2389648761409
 30
0.0
 11
39.09507390844487
 21
216.2389648761409
 31
0.0
  0
LINE
  5
727
330
1F
100
AcDbEntity
  8
0
100
AcDbLine
 10
40.59507390844486
 20
211.2389648761408
 30
0.0
 11
39.09507390844487
 21
211.2389648761408
 31
0.0
  0
LINE
  5
729
330
1F
100
AcDbEntity
  8
0
100
AcDbLine
 10
124.2593935482959
 20
207.7389648761409
 30
0.0
 11
124.2593935482959
 21
219.7389648761408
 31
0.0
  0
LINE
  5
738
330
1F
100
AcDbEntity
  8
0
100
AcDbLine
 10
97.09507390844487
 20
219.7389648761409
 30
0.0
 11
124.2593935482959
 21
219.7389648761408
 31
0.0
  0
LINE
  5
739
330
1F
100
AcDbEntity
  8
0
100
AcDbLine
 10
97.09507390844471
 20
207.7389648761408
 30
0.0
 11
124.2593935482959
 21
207.7389648761409
 31
0.0
  0
LINE
  5
73A
330
1F
100
AcDbEntity
  8
0
100
AcDbLine
 10
79.09507390844487
 20
226.7389648761408
 30
0.0
 11
97.09507390844487
 21
219.7389648761408
 31
0.0
  0
LINE
  5
73D
330
1F
100
AcDbEntity
  8
0
100
AcDbLine
 10
79.09507390844481
 20
200.738964876141
 30
0.0
 11
97.09507390844485
 21
207.7389648761409
 31
0.0
  0
LINE
  5
73E
330
1F
100
AcDbEntity
  8
0
100
AcDbLine
 10
112.0344872930831
 20
207.7389648761409
 30
0.0
 11
112.0344872930832
 21
219.7389648761409
 31
0.0
  0
LINE
  5
73F
330
1F
100
AcDbEntity
  8
0
100
AcDbLine
 10
102.243475468249
 20
207.7389648761408
 30
0.0
 11
102.243475468249
 21
219.7389648761409
 31
0.0
  0
DIMENSION
  5
75F
330
1F
100
AcDbEntity
  8
寸法
370
    13
100
AcDbDimension
  2
*D1
 10
31.09507390844486
 20
199.7389648761409
 30
0.0
 11
29.09507390844483
 21
213.7389648761409
 31
0.0
 70
    32
 71
     5
 42
28.0
  3
ISO-25 1／10
100
AcDbAlignedDimension
 13
36.09507390844486
 23
227.7389648761408
 33
0.0
 14
36.09507390844486
 24
199.7389648761409
 34
0.0
 50
90.0
100
AcDbRotatedDimension
  0
DIMENSION
  5
775
330
1F
100
AcDbEntity
  8
寸法
370
    13
100
AcDbDimension
  2
*D2
 10
36.09507390844486
 20
232.7389648761409
 30
0.0
 11
61.09507390844488
 21
234.7389648761409
 31
0.0
 70
    32
 71
     5
 42
50.0
  3
ISO-25 1／10
100
AcDbAlignedDimension
 13
86.09507390844488
 23
227.7389648761408
 33
0.0
 14
36.09507390844486
 24
227.7389648761408
 34
0.0
 50
180.0
100
AcDbRotatedDimension
  0
DIMENSION
  5
79D
330
1F
100
AcDbEntity
  8
寸法
370
    13
100
AcDbDimension
  2
*D3
 10
-66.90492609155512
 20
121.7389648761409
 30
0.0
 11
-68.90492609155514
 21
133.7389648761408
 31
0.0
 70
    32
 71
     5
 42
23.99999999999998
  3
ISO-25 1／10
100
AcDbAlignedDimension
 13
-61.90492609155512
 23
145.7389648761408
 33
0.0
 14
-61.90492609155512
 24
121.7389648761409
 34
0.0
 50
90.0
100
AcDbRotatedDimension
  0
DIMENSION
  5
7BC
330
1F
100
AcDbEntity
  8
寸法
370
    13
100
AcDbDimension
  2
*D4
 10
-71.90492609155512
 20
121.7389648761409
 30
0.0
 11
-73.90492609155514
 21
135.7389648761408
 31
0.0
 70
    32
 71
     5
 42
28.00000000000001
  3
ISO-25 1／10
100
AcDbAlignedDimension
 13
-51.40492609155513
 23
149.7389648761409
 33
0.0
 14
-61.90492609155512
 24
121.7389648761409
 34
0.0
 50
90.0
100
AcDbRotatedDimension
  0
DIMENSION
  5
7E4
330
1F
100
AcDbEntity
  8
寸法
370
    13
100
AcDbDimension
  2
*D6
 10
26.09507390844487
 20
121.7389648761409
 30
0.0
 11
24.09507390844485
 21
135.7389648761408
 31
0.0
 70
    32
 71
     5
 42
27.99999999999998
  3
ISO-25 1／10
100
AcDbAlignedDimension
 13
36.09507390844486
 23
149.7389648761409
 33
0.0
 14
36.09507390844487
 24
121.7389648761409
 34
0.0
 50
90.0
100
AcDbRotatedDimension
  0
DIMENSION
  5
7E5
330
1F
100
AcDbEntity
  8
寸法
370
    13
100
AcDbDimension
  2
*D5
 10
31.09507390844487
 20
121.7389648761409
 30
0.0
 11
29.09507390844485
 21
133.7389648761408
 31
0.0
 70
    32
 71
     5
 42
23.99999999999995
  3
ISO-25 1／10
100
AcDbAlignedDimension
 13
36.09507390844487
 23
145.7389648761408
 33
0.0
 14
36.09507390844487
 24
121.7389648761409
 34
0.0
 50
90.0
100
AcDbRotatedDimension
  0
DIMENSION
  5
819
330
1F
100
AcDbEntity
  8
寸法
370
    13
100
AcDbDimension
  2
*D8
 10
36.09507390844486
 20
76.73896487614093
 30
0.0
 11
61.09507390844488
 21
78.73896487614093
 31
0.0
 70
    32
 71
     5
 42
50.0
  3
ISO-25 1／10
100
AcDbAlignedDimension
 13
86.09507390844488
 23
71.73896487614093
 33
0.0
 14
36.09507390844486
 24
71.73896487614093
 34
0.0
 50
180.0
100
AcDbRotatedDimension
  0
LWPOLYLINE
  5
81A
330
1F
100
AcDbEntity
  8
0
100
AcDbPolyline
 90
        6
 70
     0
 43
0.0
 10
86.09507390844488
 20
57.7389648761409
 10
86.09507390844488
 20
43.73896487614089
 10
36.09507390844486
 20
43.73896487614089
 10
36.09507390844486
 20
71.7389648761409
 10
86.09507390844488
 20
71.7389648761409
 10
86.09507390844488
 20
57.7389648761409
  0
DIMENSION
  5
81D
330
1F
100
AcDbEntity
  8
寸法
370
    13
100
AcDbDimension
  2
*D7
 10
31.09507390844486
 20
71.73896487614091
 30
0.0
 11
29.09507390844485
 21
57.73896487614091
 31
0.0
 70
    32
 71
     5
 42
28.0
  3
ISO-25 1／10
100
AcDbAlignedDimension
 13
36.09507390844486
 23
43.73896487614089
 33
0.0
 14
36.09507390844486
 24
71.7389648761409
 34
0.0
 50
270.0
100
AcDbRotatedDimension
  0
ARC
  5
821
330
1F
100
AcDbEntity
  8
0
100
AcDbCircle
 10
40.59507390844486
 20
57.7389648761409
 30
0.0
 40
2.5
100
AcDbArc
 50
270.0
 51
90.00000000000003
  0
LINE
  5
822
330
1F
100
AcDbEntity
  8
0
100
AcDbLine
 10
40.59507390844486
 20
60.2389648761409
 30
0.0
 11
39.09507390844487
 21
60.2389648761409
 31
0.0
  0
LINE
  5
823
330
1F
100
AcDbEntity
  8
0
100
AcDbLine
 10
40.59507390844486
 20
55.2389648761409
 30
0.0
 11
39.09507390844487
 21
55.2389648761409
 31
0.0
  0
CIRCLE
  5
827
330
1F
100
AcDbEntity
  8
0
100
AcDbCircle
 10
73.09507390844487
 20
57.7389648761409
 30
0.0
 40
3.0
  0
LINE
  5
828
330
1F
100
AcDbEntity
  8
0
100
AcDbLine
 10
97.09507390844487
 20
51.73896487614086
 30
0.0
 11
124.2593935482959
 21
51.7389648761409
 31
0.0
  0
LINE
  5
829
330
1F
100
AcDbEntity
  8
0
100
AcDbLine
 10
97.09507390844471
 20
63.73896487614095
 30
0.0
 11
124.2593935482959
 21
63.73896487614087
 31
0.0
  0
LINE
  5
82A
330
1F
100
AcDbEntity
  8
0
100
AcDbLine
 10
102.243475468249
 20
63.73896487614093
 30
0.0
 11
102.243475468249
 21
51.73896487614084
 31
0.0
  0
LINE
  5
82B
330
1F
100
AcDbEntity
  8
0
100
AcDbLine
 10
86.09507390844488
 20
68.01674265391858
 30
0.0
 11
97.09507390844485
 21
63.73896487614089
 31
0.0
  0
LINE
  5
82C
330
1F
100
AcDbEntity
  8
0
100
AcDbLine
 10
86.09507390844488
 20
47.46118709836314
 30
0.0
 11
97.09507390844487
 21
51.7389648761409
 31
0.0
  0
LINE
  5
82D
330
1F
100
AcDbEntity
  8
0
100
AcDbLine
 10
112.0344872930831
 20
63.73896487614089
 30
0.0
 11
112.0344872930832
 21
51.73896487614084
 31
0.0
  0
LINE
  5
82E
330
1F
100
AcDbEntity
  8
0
100
AcDbLine
 10
124.2593935482959
 20
63.73896487614087
 30
0.0
 11
124.2593935482959
 21
51.7389648761409
 31
0.0
  0
CIRCLE
  5
864
330
1F
100
AcDbEntity
  8
0
100
AcDbCircle
 10
58.09507390844487
 20
57.7389648761409
 30
0.0
 40
3.0
  0
LINE
  5
867
330
1F
100
AcDbEntity
  8
0
100
AcDbLine
 10
83.09507390844487
 20
71.7389648761409
 30
0.0
 11
83.09507390844487
 21
43.73896487614089
 31
0.0
  0
LINE
  5
868
330
1F
100
AcDbEntity
  8
0
100
AcDbLine
 10
39.09507390844487
 20
71.7389648761409
 30
0.0
 11
39.09507390844487
 21
43.73896487614089
 31
0.0
  0
LWPOLYLINE
  5
869
330
1F
100
AcDbEntity
  8
0
100
AcDbPolyline
 90
        6
 70
     1
 43
0.0
 10
39.09507390844487
 20
51.23896487614089
 10
44.09507390844486
 20
51.23896487614089
 42
0.4142135623730951
 10
45.09507390844485
 20
52.2389648761409
 10
45.09507390844486
 20
63.23896487614089
 42
0.4142135623730951
 10
44.09507390844487
 20
64.2389648761409
 10
39.09507390844487
 20
64.2389648761409
  0
LWPOLYLINE
  5
86A
330
1F
100
AcDbEntity
  8
0
100
AcDbPolyline
 90
        4
 70
     1
 43
0.0
 10
86.09507390844488
 20
51.7389648761409
 10
97.09507390844487
 20
51.7389648761409
 10
97.09507390844487
 20
63.73896487614089
 10
86.09507390844488
 20
63.73896487614089
  0
LWPOLYLINE
  5
86B
330
1F
100
AcDbEntity
  8
0
100
AcDbPolyline
 90
        6
 70
     1
 43
0.0
 10
79.5950739084449
 20
55.2389648761409
 10
83.09507390844485
 20
55.2389648761409
 10
83.09507390844485
 20
60.2389648761409
 10
79.59507390844487
 20
60.2389648761409
 42
0.4142135623730951
 10
77.09507390844487
 20
57.7389648761409
 10
77.0950739084449
 20
57.73896487614092
 42
0.4142135623730966
  0
DIMENSION
  5
86C
330
1F
100
AcDbEntity
  8
寸法
370
    13
100
AcDbDimension
  2
*D9
 10
151.0950739084448
 20
121.7389648761409
 30
0.0
 11
149.0950739084448
 21
133.7389648761409
 31
0.0
 70
    32
 71
     5
 42
23.99999999999997
  3
ISO-25 1／10
100
AcDbAlignedDimension
 13
156.0950739084448
 23
145.7389648761408
 33
0.0
 14
156.0950739084448
 24
121.7389648761409
 34
0.0
 50
90.0
100
AcDbRotatedDimension
  0
DIMENSION
  5
882
330
1F
100
AcDbEntity
  8
寸法
370
    13
100
AcDbDimension
  2
*D10
 10
-33.90492609155512
 20
116.7389648761408
 30
0.0
 11
-47.90492609155513
 21
118.7389648761408
 31
0.0
 70
    32
 71
     5
 42
28.0
  3
ISO-25 1／10
100
AcDbAlignedDimension
 13
-61.90492609155512
 23
121.7389648761409
 33
0.0
 14
-33.90492609155512
 24
121.7389648761409
 34
0.0
100
AcDbRotatedDimension
  0
DIMENSION
  5
8B3
330
1F
100
AcDbEntity
  8
寸法
370
    13
100
AcDbDimension
  2
*D11
 10
184.0950739084448
 20
116.7389648761408
 30
0.0
 11
170.0950739084448
 21
118.7389648761408
 31
0.0
 70
    32
 71
     5
 42
28.0
  3
ISO-25 1／10
100
AcDbAlignedDimension
 13
156.0950739084448
 23
121.7389648761409
 33
0.0
 14
184.0950739084448
 24
121.7389648761409
 34
0.0
100
AcDbRotatedDimension
  0
ENDSEC
  0
SECTION
  2
OBJECTS
  0
DICTIONARY
  5
C
330
0
100
AcDbDictionary
281
     1
  3
ACAD_GROUP
350
D
  3
ACAD_LAYOUT
350
1A
  3
ACAD_MLINESTYLE
350
17
  3
ACAD_PLOTSETTINGS
350
19
  3
ACAD_PLOTSTYLENAME
350
E
  0
DICTIONARY
  5
44
330
2
100
AcDbDictionary
280
     1
281
     1
  3
ACAD_LAYERFILTERS
360
45
  0
DICTIONARY
  5
D
102
{ACAD_REACTORS
330
C
102
}
330
C
100
AcDbDictionary
281
     1
  3
*A1
350
5C6
  3
*A2
350
604
  3
*A3
350
606
  3
*A4
350
657
  3
*A5
350
6E2
  3
*A6
350
710
  3
*A7
350
859
  0
DICTIONARY
  5
1A
102
{ACAD_REACTORS
330
C
102
}
330
C
100
AcDbDictionary
281
     1
  3
Layout1
350
1E
  3
Layout2
350
26
  3
Model
350
22
  0
DICTIONARY
  5
17
102
{ACAD_REACTORS
330
C
102
}
330
C
100
AcDbDictionary
281
     1
  3
Standard
350
18
  0
DICTIONARY
  5
19
102
{ACAD_REACTORS
330
C
102
}
330
C
100
AcDbDictionary
281
     1
  0
ACDBDICTIONARYWDFLT
  5
E
102
{ACAD_REACTORS
330
C
102
}
330
C
100
AcDbDictionary
281
     1
  3
Normal
350
F
100
AcDbDictionaryWithDefault
340
F
  0
DICTIONARY
  5
45
102
{ACAD_REACTORS
330
44
102
}
330
44
100
AcDbDictionary
280
     1
281
     1
  3
-100
360
46
  3
-50
360
47
  3
-ben
360
48
  3
-H
360
49
  3
-T
360
4A
  3
$
360
4B
  3
$0$
360
4C
  3
0
360
4D
  3
0-
360
4E
  3
00
360
4F
  3
01
360
50
  3
01KUTAI
360
51
  3
01全体計画平面図
360
52
  3
02現況平面図
360
53
  3
03撤去平面図
360
54
  3
04造成平面図
360
55
  3
05
360
56
  3
05施設平面図
360
57
  3
06
360
58
  3
06siki
360
59
  3
06siki2
360
5A
  3
06排水平面図
360
5B
  3
07
360
5C
  3
07給水平面図
360
5D
  3
0割付平面図
360
5E
  3
0潅水平面
360
5F
  3
0計画平面
360
60
  3
0高木植栽
360
61
  3
0施設平面
360
62
  3
0床内
360
63
  3
0床壁
360
64
  3
0照明配置図
360
65
  3
0詳細図
360
66
  3
0植栽基盤
360
67
  3
0全体工区区分図
360
68
  3
0総合図off
360
69
  3
0総合図枠
360
6A
  3
0低木
360
6B
  3
0排水平面
360
6C
  3
0平詳枠
360
6D
  3
0擁壁平面図
360
6E
  3
1
360
6F
  3
10
360
70
  3
100
360
71
  3
10植栽平面図
360
72
  3
11
360
73
  3
1111
360
74
  3
11寸法図
360
75
  3
12
360
76
  3
19
360
77
  3
１Ｆ床伏OFF
360
78
  3
1階
360
79
  3
1床
360
7A
  3
1芯
360
7B
  3
1芯線
360
7C
  3
20
360
7D
  3
21
360
7E
  3
250
360
7F
  3
2fmiage
360
80
  3
2躯体
360
81
  3
2断面
360
82
  3
2壁
360
83
  3
300
360
84
  3
32
360
85
  3
333
360
86
  3
37
360
87
  3
3D
360
88
  3
3開口
360
89
  3
3見掛り
360
8A
  3
3天井内
360
8B
  3
41
360
8C
  3
4仕上げ
360
8D
  3
4天井
360
8E
  3
5
360
8F
  3
50
360
90
  3
50off
360
91
  3
51-52
360
92
  3
555
360
93
  3
5寸法
360
94
  3
5文字
360
95
  3
6
360
96
  3
66-躯体図
360
97
  3
66躯体図
360
98
  3
6記号
360
99
  3
6文字
360
9A
  3
6保留
360
9B
  3
767
360
9C
  3
767SE13-0...$
360
9D
  3
767SE13-07-99$0$
360
9E
  3
7記号
360
9F
  3
8
360
A0
  3
8寸法
360
A1
  3
8設備
360
A2
  3
9文字
360
A3
  3
9目地
360
A4
  3
A
360
A5
  3
A-
360
A6
  3
A(枠･表)を表示
360
A7
  3
A01
360
A8
  3
A1.DEMO-KEY NOTE
360
A9
  3
A2. CONS-KEY NOTE
360
AA
  3
A21
360
AB
  3
A3
360
AC
  3
A3. RCP-LAYER
360
AD
  3
A3D. RCP_DEMO-KEY NOTE
360
AE
  3
A4. P&T- KEY NOTE
360
AF
  3
A4D. EL_DEMO-KEY NOTE
360
B0
  3
A5. FINISH-KEY NOTE
360
B1
  3
A6. FURN-KEY NOTE
360
B2
  3
aa
360
B3
  3
aaa
360
B4
  3
AB棟
360
B5
  3
ＡＢ棟
360
B6
  3
ACTIVE
360
B7
  3
ACTIVE2
360
B8
  3
ALC
360
B9
  3
ALL
360
BA
  3
all選択
360
BB
  3
AMENAGEMENT
360
BC
  3
AQ
360
BD
  3
ARBOL
360
BE
  3
AREA
360
BF
  3
AREA-SG
360
C0
  3
AS1
360
C1
  3
aハッチング
360
C2
  3
A空調
360
C3
  3
B
360
C4
  3
B(基準)を表示
360
C5
  3
B2
360
C6
  3
B3
360
C7
  3
BAL
360
C8
  3
baru
360
C9
  3
baru2
360
CA
  3
BASE
360
CB
  3
bb
360
CC
  3
bbbb
360
CD
  3
beam
360
CE
  3
blocchi
360
CF
  3
blue
360
D0
  3
BSM
360
D1
  3
b階段
360
D2
  3
B電気
360
D3
  3
c
360
D4
  3
c-block
360
D5
  3
c-block-2
360
D6
  3
C(寸･文･記)を表示
360
D7
  3
cajetin
360
D8
  3
cc
360
D9
  3
CD06
360
DA
  3
ＣＤ棟
360
DB
  3
ceiling
360
DC
  3
CEILINGS XREF
360
DD
  3
CEL
360
DE
  3
che
360
DF
  3
chika
360
E0
  3
CLG
360
E1
  3
COL
360
E2
  3
cold beam
360
E3
  3
colu
360
E4
  3
com
360
E5
  3
con
360
E6
  3
CRG
360
E7
  3
cyan
360
E8
  3
C衛生
360
E9
  3
C街区関連
360
EA
  3
c雑金物
360
EB
  3
C打計画図
360
EC
  3
D
360
ED
  3
D(表現補助)を表示
360
EE
  3
Ｄ・墓地　施設平面
360
EF
  3
D16
360
F0
  3
DASHED
360
F1
  3
DASHED2
360
F2
  3
DEMO
360
F3
  3
DEMOLITION
360
F4
  3
detail
360
F5
  3
details
360
F6
  3
DHED
360
F7
  3
Dim
360
F8
  3
disegno
360
F9
  3
DOORS
360
FA
  3
DR
360
FB
  3
DT
360
FC
  3
d外構
360
FD
  3
Ｄ街区低木
360
FE
  3
D割付平面
360
FF
  3
Ｄ給水設備
360
100
  3
Ｄ計画高平面
360
101
  3
Ｄ計画平面
360
102
  3
Ｄ工事区分
360
103
  3
Ｄ高木植栽
360
104
  3
Ｄ施設平面
360
105
  3
Ｄ照明設備
360
106
  3
Ｄ低木
360
107
  3
Ｄ電気設備
360
108
  3
Ｄ土壌改良
360
109
  3
Ｄ排水平面
360
10A
  3
D舗装平面
360
10B
  3
Ｄ墓地施設平面
360
10C
  3
D墓地排水
360
10D
  3
E
360
10E
  3
E(点線系)を表示
360
10F
  3
EEEE
360
110
  3
EISEI
360
111
  3
ele
360
112
  3
elec
360
113
  3
ERAS1F
360
114
  3
existing
360
115
  3
Exit
360
116
  3
F
360
117
  3
F(断面)を表示
360
118
  3
F1
360
119
  3
face4
360
11A
  3
FC_CLADDING
360
11B
  3
FENCE
360
11C
  3
FF
360
11D
  3
FH
360
11E
  3
FILTER1
360
11F
  3
fini
360
120
  3
finish
360
121
  3
FIRE
360
122
  3
fixture
360
123
  3
fl
360
124
  3
Floor
360
125
  3
FLOOR PLAN
360
126
  3
fr
360
127
  3
freeze
360
128
  3
FRZ
360
129
  3
Fugou
360
12A
  3
FUGOU-TATEGU
360
12B
  3
FUKI
360
12C
  3
FURN
360
12D
  3
FURNITURE
360
12E
  3
FUSE_00
360
12F
  3
G
360
130
  3
G(開口)を表示
360
131
  3
GAIKOU
360
132
  3
gel
360
133
  3
gen
360
134
  3
gondora
360
135
  3
green
360
136
  3
GRID
360
137
  3
gris
360
138
  3
H
360
139
  3
H-
360
13A
  3
H-SIN
360
13B
  3
H(見掛)を表示
360
13C
  3
HA
360
13D
  3
haikin
360
13E
  3
HAISEN
360
13F
  3
HARI
360
140
  3
hasira
360
141
  3
HATCH
360
142
  3
HCP
360
143
  3
HEISHO
360
144
  3
HEISHO2
360
145
  3
HIDDEN
360
146
  3
HOJO
360
147
  3
hollywood
360
148
  3
HOTEL
360
149
  3
huse
360
14A
  3
HYOKI
360
14B
  3
HYOUKI
360
14C
  3
i
360
14D
  3
I(二次部材系))を表示
360
14E
  3
I2
360
14F
  3
i2cl
360
150
  3
i5
360
151
  3
i9
360
152
  3
in
360
153
  3
INSERT図
360
154
  3
ISSUE
360
155
  3
J
360
156
  3
K
360
157
  3
KABE
360
158
  3
KABESHIN
360
159
  3
KAGU
360
15A
  3
key
360
15B
  3
KI
360
15C
  3
KIGO
360
15D
  3
KIJUN
360
15E
  3
kiso
360
15F
  3
KSIN
360
160
  3
kui
360
161
  3
KUTAI
360
162
  3
L
360
163
  3
LEGEND
360
164
  3
LGS
360
165
  3
light
360
166
  3
LIST
360
167
  3
lixo
360
168
  3
LOCK
360
169
  3
LTA
360
16A
  3
Ｌ建具
360
16B
  3
M
360
16C
  3
MA
360
16D
  3
MACONNERIE
360
16E
  3
magenta
360
16F
  3
magenta-bleu
360
170
  3
maji
360
171
  3
MAJIKIRI
360
172
  3
marco
360
173
  3
MB
360
174
  3
meji
360
175
  3
merceologico
360
176
  3
MILL
360
177
  3
MILLWORK
360
178
  3
miwa
360
179
  3
MOJI
360
17A
  3
MOJI100
360
17B
  3
N
360
17C
  3
N-
360
17D
  3
NAM
360
17E
  3
NEW
360
17F
  3
NHK
360
180
  3
niimi
360
181
  3
no xref
360
182
  3
note
360
183
  3
NUM
360
184
  3
NUMB
360
185
  3
O
360
186
  3
OF
360
187
  3
OFF
360
188
  3
on
360
189
  3
option 1
360
18A
  3
option 2
360
18B
  3
OUTLINE
360
18C
  3
P
360
18D
  3
pa
360
18E
  3
PALFOND
360
18F
  3
PAT
360
190
  3
PC
360
191
  3
PISO
360
192
  3
PLAN
360
193
  3
PLMB
360
194
  3
plot
360
195
  3
PLUMB
360
196
  3
PNL
360
197
  3
power
360
198
  3
PRT
360
199
  3
q
360
19A
  3
R
360
19B
  3
rack
360
19C
  3
RC
360
19D
  3
RCP
360
19E
  3
rm
360
19F
  3
RMTAGS
360
1A0
  3
RNUM
360
1A1
  3
ROOM
360
1A2
  3
roomno
360
1A3
  3
rouge
360
1A4
  3
rtkl
360
1A5
  3
S
360
1A6
  3
saciencewold
360
1A7
  3
SETUBI
360
1A8
  3
SHITU
360
1A9
  3
SHITUMEI
360
1AA
  3
SIAG
360
1AB
  3
SIAG-N
360
1AC
  3
SIAG3
360
1AD
  3
sin
360
1AE
  3
Sinm
360
1AF
  3
SITA
360
1B0
  3
siyah
360
1B1
  3
SS
360
1B2
  3
ST
360
1B3
  3
STA
360
1B4
  3
stairs
360
1B5
  3
SUGA5
360
1B6
  3
SUNP
360
1B7
  3
SUNP100
360
1B8
  3
T
360
1B9
  3
TAKASA
360
1BA
  3
TATE161
360
1BB
  3
TATEGU
360
1BC
  3
ten
360
1BD
  3
TENJYOU
360
1BE
  3
TENJYOUNAI
360
1BF
  3
test
360
1C0
  3
text
360
1C1
  3
thaw
360
1C2
  3
TITL
360
1C3
  3
tnjyou
360
1C4
  3
tori
360
1C5
  3
TORISHIN
360
1C6
  3
tr
360
1C7
  3
TSIN
360
1C8
  3
TXT
360
1C9
  3
UNFREEZ
360
1CA
  3
UNROCK
360
1CB
  3
wada
360
1CC
  3
waku
360
1CD
  3
X
360
1CE
  3
X(敷地)を表示
360
1CF
  3
xref
360
1D0
  3
YAJI
360
1D1
  3
yellow
360
1D2
  3
YUKA
360
1D3
  3
yその他
360
1D4
  3
Z
360
1D5
  3
ZATU
360
1D6
  3
z図枠
360
1D7
  3
к
360
1D8
  3
перегородки
360
1D9
  3
イベント給水
360
1DA
  3
ガラス
360
1DB
  3
キ-プラン
360
1DC
  3
キープラン
360
1DD
  3
さーくる
360
1DE
  3
シェルター
360
1DF
  3
すべてに反映
360
1E0
  3
スロープ
360
1E1
  3
タイル割付平面図
360
1E2
  3
ﾃｷｽﾄのみ表示
360
1E3
  3
ハッチング
360
1E4
  3
フリーズ
360
1E5
  3
フリーズof
360
1E6
  3
ﾌﾘｰｽﾞ画層非表示
360
1E7
  3
ﾌﾘｰｽﾞ画面非表示
360
1E8
  3
ﾌﾘｰｽﾞ解除
360
1E9
  3
フリーズ解除
360
1EA
  3
ﾌﾟﾚｾﾞﾝ枠
360
1EB
  3
マーク
360
1EC
  3
ﾒｲﾝﾌﾟﾗｻﾞ
360
1ED
  3
レベル
360
1EE
  3
ロック
360
1EF
  3
一括非表示
360
1F0
  3
一般図
360
1F1
  3
印刷
360
1F2
  3
荏原機器
360
1F3
  3
荏原機器基礎
360
1F4
  3
衛生設備図
360
1F5
  3
黄色
360
1F6
  3
下階
360
1F7
  3
下地
360
1F8
  3
外構
360
1F9
  3
外部参照－建築
360
1FA
  3
外部参照除く
360
1FB
  3
割り付け平面図
360
1FC
  3
割付平面図
360
1FD
  3
潅水平面
360
1FE
  3
基
360
1FF
  3
基準
360
200
  3
基準階
360
201
  3
基礎OFF
360
202
  3
基礎伏
360
203
  3
基礎伏図
360
204
  3
基盤改良平面図
360
205
  3
既存杭
360
206
  3
機器
360
207
  3
機器基礎
360
208
  3
記号
360
209
  3
給水設備平面図
360
20A
  3
給水平面
360
20B
  3
区画
360
20C
  3
躯体
360
20D
  3
躯体図
360
20E
  3
空調jv
360
20F
  3
空調設備図
360
210
  3
郡川
360
211
  3
型枠計画図
360
212
  3
計画高平面図
360
213
  3
計画平面
360
214
  3
計画平面図
360
215
  3
劇場ﾌﾟﾗｻﾞ
360
216
  3
劇場棟
360
217
  3
建具
360
218
  3
建築接地図
360
219
  3
見上げ
360
21A
  3
現在非表示画層
360
21B
  3
光天井
360
21C
  3
公園
360
21D
  3
工事区分図
360
21E
  3
工事区分図AB
360
21F
  3
工事区分図CD
360
220
  3
高さ
360
221
  3
高木植栽平面
360
222
  3
高木平面図
360
223
  3
座席のみ
360
224
  3
作業
360
225
  3
参考
360
226
  3
山止根切計画図
360
227
  3
仕
360
228
  3
仕上
360
229
  3
仕上図
360
22A
  3
使用中
360
22B
  3
施設配置図
360
22C
  3
施設平面
360
22D
  3
施設平面図
360
22E
  3
紫
360
22F
  3
床伏図
360
230
  3
昇降機
360
231
  3
照明
360
232
  3
照明Ｃ１
360
233
  3
照明Ｃ２
360
234
  3
照明配置図
360
235
  3
詳細
360
236
  3
詳細図
360
237
  3
上階躯体図
360
238
  3
植栽
360
239
  3
植栽基盤平面
360
23A
  3
植栽現況
360
23B
  3
植栽高木AB
360
23C
  3
植栽高木CD
360
23D
  3
植栽低木AB
360
23E
  3
植栽低木ＣＤ
360
23F
  3
色番号8
360
240
  3
申請用
360
241
  3
芯
360
242
  3
芯関係
360
243
  3
水
360
244
  3
水色
360
245
  3
寸法
360
246
  3
製作
360
247
  3
製作-躯体
360
248
  3
製作-建築
360
249
  3
製作-昇降機
360
24A
  3
青
360
24B
  3
設備
360
24C
  3
設備プロット
360
24D
  3
全階平面図
360
24E
  3
総合仮設図
360
24F
  3
総合図
360
250
  3
足場計画図
360
251
  3
地下埋設
360
252
  3
中野
360
253
  3
低木植栽平面
360
254
  3
低木平面図
360
255
  3
鉄骨
360
256
  3
鉄骨建方計画図
360
257
  3
天井インサート図
360
258
  3
天井総合図
360
259
  3
天井伏図
360
25A
  3
天伏
360
25B
  3
電気設備図
360
25C
  3
土壌改良
360
25D
  3
土木計画平面図
360
25E
  3
道路
360
25F
  3
道路関係図
360
260
  3
排水
360
261
  3
排水設備平面図
360
262
  3
排水平面
360
263
  3
配管
360
264
  3
非表示
360
265
  3
非表示ﾚｲﾔｰ
360
266
  3
表示
360
267
  3
表示・非表示
360
268
  3
表示2
360
269
  3
分割枠
360
26A
  3
平面詳細図
360
26B
  3
平面図
360
26C
  3
平面総合図
360
26D
  3
変更分
360
26E
  3
舗装平面
360
26F
  3
舗装平面C1
360
270
  3
舗装平面C2
360
271
  3
舗装平面図
360
272
  3
法規チェック－区画
360
273
  3
法規チェック－範囲
360
274
  3
鳳文字入力
360
275
  3
防災
360
276
  3
名称
360
277
  3
面積
360
278
  3
擁壁平面図
360
279
  3
用途色塗
360
27A
  3
立面図
360
27B
  3
梁
360
27C
  3
緑
360
27D
  0
GROUP
  5
5C6
102
{ACAD_REACTORS
330
D
102
}
330
D
100
AcDbGroup
300

 70
     1
 71
     1
  0
GROUP
  5
604
102
{ACAD_REACTORS
330
D
102
}
330
D
100
AcDbGroup
300

 70
     1
 71
     1
340
5F5
340
603
340
5F6
340
602
340
5FA
340
601
340
5F7
340
5F8
340
5F9
  0
GROUP
  5
606
102
{ACAD_REACTORS
330
D
102
}
330
D
100
AcDbGroup
300

 70
     1
 71
     1
340
5C7
340
5F6
340
5F5
340
603
340
602
340
5FA
340
601
340
5F7
340
5F8
340
5F9
  0
GROUP
  5
657
102
{ACAD_REACTORS
330
D
102
}
330
D
100
AcDbGroup
300

 70
     1
 71
     1
340
626
340
625
340
624
340
623
340
628
340
627
340
62A
340
629
340
62C
340
62B
  0
GROUP
  5
6E2
102
{ACAD_REACTORS
330
D
102
}
330
D
100
AcDbGroup
300

 70
     1
 71
     1
340
6D8
340
6D9
340
6DA
340
6D7
340
6DB
340
6DC
340
6DD
340
6DE
340
6DF
  0
GROUP
  5
710
102
{ACAD_REACTORS
330
D
102
}
330
D
100
AcDbGroup
300

 70
     1
 71
     1
340
5FC
340
5C8
340
5FD
  0
GROUP
  5
859
102
{ACAD_REACTORS
330
D
102
}
330
D
100
AcDbGroup
300

 70
     1
 71
     1
  0
LAYOUT
  5
1E
102
{ACAD_REACTORS
330
1A
102
}
330
1A
100
AcDbPlotSettings
  1

  2

  4

  6

 40
0.0
 41
0.0
 42
0.0
 43
0.0
 44
0.0
 45
0.0
 46
0.0
 47
0.0
 48
0.0
 49
0.0
140
0.0
141
0.0
142
1.0
143
1.0
 70
   688
 72
     0
 73
     0
 74
     5
  7

 75
    16
147
1.0
148
0.0
149
0.0
100
AcDbLayout
  1
Layout1
 70
     1
 71
     1
 10
0.0
 20
0.0
 11
420.0
 21
297.0
 12
0.0
 22
0.0
 32
0.0
 14
1.000000000000000E+20
 24
1.000000000000000E+20
 34
1.000000000000000E+20
 15
-1.000000000000000E+20
 25
-1.000000000000000E+20
 35
-1.000000000000000E+20
146
0.0
 13
0.0
 23
0.0
 33
0.0
 16
1.0
 26
0.0
 36
0.0
 17
0.0
 27
1.0
 37
0.0
 76
     0
330
1B
  0
LAYOUT
  5
26
102
{ACAD_REACTORS
330
1A
102
}
330
1A
100
AcDbPlotSettings
  1

  2

  4

  6

 40
0.0
 41
0.0
 42
0.0
 43
0.0
 44
0.0
 45
0.0
 46
0.0
 47
0.0
 48
0.0
 49
0.0
140
0.0
141
0.0
142
1.0
143
1.0
 70
   688
 72
     0
 73
     0
 74
     5
  7

 75
    16
147
1.0
148
0.0
149
0.0
100
AcDbLayout
  1
Layout2
 70
     1
 71
     2
 10
0.0
 20
0.0
 11
12.0
 21
9.0
 12
0.0
 22
0.0
 32
0.0
 14
0.0
 24
0.0
 34
0.0
 15
0.0
 25
0.0
 35
0.0
146
0.0
 13
0.0
 23
0.0
 33
0.0
 16
1.0
 26
0.0
 36
0.0
 17
0.0
 27
1.0
 37
0.0
 76
     0
330
23
  0
LAYOUT
  5
22
102
{ACAD_REACTORS
330
1A
102
}
330
1A
100
AcDbPlotSettings
  1

  2

  4

  6

 40
0.0
 41
0.0
 42
0.0
 43
0.0
 44
0.0
 45
0.0
 46
0.0
 47
0.0
 48
0.0
 49
0.0
140
0.0
141
0.0
142
1.0
143
1.0
 70
  1712
 72
     0
 73
     0
 74
     0
  7

 75
     0
147
1.0
148
0.0
149
0.0
100
AcDbLayout
  1
Model
 70
     1
 71
     0
 10
0.0
 20
0.0
 11
12.0
 21
9.0
 12
0.0
 22
0.0
 32
0.0
 14
0.0
 24
0.0
 34
0.0
 15
0.0
 25
0.0
 35
0.0
146
0.0
 13
0.0
 23
0.0
 33
0.0
 16
1.0
 26
0.0
 36
0.0
 17
0.0
 27
1.0
 37
0.0
 76
     0
330
1F
  0
MLINESTYLE
  5
18
102
{ACAD_REACTORS
330
17
102
}
330
17
100
AcDbMlineStyle
  2
STANDARD
 70
     0
  3

 62
   256
 51
90.0
 52
90.0
 71
     2
 49
0.5
 62
   256
  6
BYLAYER
 49
-0.5
 62
   256
  6
BYLAYER
  0
ACDBPLACEHOLDER
  5
F
102
{ACAD_REACTORS
330
E
102
}
330
E
  0
XRECORD
  5
46
102
{ACAD_REACTORS
330
45
102
}
330
45
100
AcDbXrecord
280
     1
  1
-100
  1
*-100
  1
*
  1
*
 70
     0
  1
*
  1
*
  0
XRECORD
  5
47
102
{ACAD_REACTORS
330
45
102
}
330
45
100
AcDbXrecord
280
     1
  1
-50
  1
*-50
  1
*
  1
*
 70
     0
  1
*
  1
*
  0
XRECORD
  5
48
102
{ACAD_REACTORS
330
45
102
}
330
45
100
AcDbXrecord
280
     1
  1
-ben
  1
ben*
  1
*
  1
*
 70
     0
  1
*
  1
*
  0
XRECORD
  5
49
102
{ACAD_REACTORS
330
45
102
}
330
45
100
AcDbXrecord
280
     1
  1
-H
  1
00*,01*,02*,05*,1*,2*,3*,4*,5*,6*,8*
  1
*
  1
*
 70
     0
  1
*
  1
*
  0
XRECORD
  5
4A
102
{ACAD_REACTORS
330
45
102
}
330
45
100
AcDbXrecord
280
     1
  1
-T
  1
00*,01*,03*,05*,1*,20*,21*,22*,23*,24*,25*,26*,27*,29*,2a*,3*,4*,7*,9*
  1
*
  1
*
 70
     0
  1
*
  1
*
  0
XRECORD
  5
4B
102
{ACAD_REACTORS
330
45
102
}
330
45
100
AcDbXrecord
280
     1
  1
$
  1
*$0$*
  1
*
  1
*
 70
     0
  1
*
  1
*
  0
XRECORD
  5
4C
102
{ACAD_REACTORS
330
45
102
}
330
45
100
AcDbXrecord
280
     1
  1
$0$
  1
$0$*
  1
*
  1
*
 70
     0
  1
*
  1
*
  0
XRECORD
  5
4D
102
{ACAD_REACTORS
330
45
102
}
330
45
100
AcDbXrecord
280
     1
  1
0
  1
0*
  1
*
  1
*
 70
     0
  1
*
  1
*
  0
XRECORD
  5
4E
102
{ACAD_REACTORS
330
45
102
}
330
45
100
AcDbXrecord
280
     1
  1
0-
  1
0-*
  1
*
  1
*
 70
     0
  1
*
  1
*
  0
XRECORD
  5
4F
102
{ACAD_REACTORS
330
45
102
}
330
45
100
AcDbXrecord
280
     1
  1
00
  1
*-100
  1
*
  1
*
 70
     0
  1
*
  1
*
  0
XRECORD
  5
50
102
{ACAD_REACTORS
330
45
102
}
330
45
100
AcDbXrecord
280
     1
  1
01
  1
0*a*
  1
*
  1
*
 70
     0
  1
*
  1
*
  0
XRECORD
  5
51
102
{ACAD_REACTORS
330
45
102
}
330
45
100
AcDbXrecord
280
     1
  1
01KUTAI
  1
01KUTAI
  1
*
  1
*
 70
     0
  1
*
  1
*
  0
XRECORD
  5
52
102
{ACAD_REACTORS
330
45
102
}
330
45
100
AcDbXrecord
280
     1
  1
01全体計画平面図
  1
00*,02*,0A*
  1
*
  1
*
 70
     0
  1
*
  1
*
  0
XRECORD
  5
53
102
{ACAD_REACTORS
330
45
102
}
330
45
100
AcDbXrecord
280
     1
  1
02現況平面図
  1
00*,01*,0B*
  1
*
  1
*
 70
     0
  1
*
  1
*
  0
XRECORD
  5
54
102
{ACAD_REACTORS
330
45
102
}
330
45
100
AcDbXrecord
280
     1
  1
03撤去平面図
  1
00*,01*,0C*
  1
*
  1
*
 70
     0
  1
*
  1
*
  0
XRECORD
  5
55
102
{ACAD_REACTORS
330
45
102
}
330
45
100
AcDbXrecord
280
     1
  1
04造成平面図
  1
00*,02計*,0D*,03*,01*
  1
*
  1
*
 70
     0
  1
*
  1
*
  0
XRECORD
  5
56
102
{ACAD_REACTORS
330
45
102
}
330
45
100
AcDbXrecord
280
     1
  1
05
  1
*05*
  1
*
  1
*
 70
     0
  1
*
  1
*
  0
XRECORD
  5
57
102
{ACAD_REACTORS
330
45
102
}
330
45
100
AcDbXrecord
280
     1
  1
05施設平面図
  1
00*,02*,0E*,05*
  1
*
  1
*
 70
     0
  1
*
  1
*
  0
XRECORD
  5
58
102
{ACAD_REACTORS
330
45
102
}
330
45
100
AcDbXrecord
280
     1
  1
06
  1
06*
  1
*
  1
*
 70
     0
  1
*
  1
*
  0
XRECORD
  5
59
102
{ACAD_REACTORS
330
45
102
}
330
45
100
AcDbXrecord
280
     1
  1
06siki
  1
06*siki*,sikiti,00waku,*|*
  1
*
  1
*
 70
     0
  1
*
  1
*
  0
XRECORD
  5
5A
102
{ACAD_REACTORS
330
45
102
}
330
45
100
AcDbXrecord
280
     1
  1
06siki2
  1
06*siki*,sikiti,00waku,*|*
  1
*
  1
*
 70
     0
  1
*
  1
*
  0
XRECORD
  5
5B
102
{ACAD_REACTORS
330
45
102
}
330
45
100
AcDbXrecord
280
     1
  1
06排水平面図
  1
00*,02*,0F*
  1
*
  1
*
 70
     0
  1
*
  1
*
  0
XRECORD
  5
5C
102
{ACAD_REACTORS
330
45
102
}
330
45
100
AcDbXrecord
280
     1
  1
07
  1
07*
  1
*
  1
*
 70
     0
  1
*
  1
*
  0
XRECORD
  5
5D
102
{ACAD_REACTORS
330
45
102
}
330
45
100
AcDbXrecord
280
     1
  1
07給水平面図
  1
00*,02*,0G*
  1
*
  1
*
 70
     0
  1
*
  1
*
  0
XRECORD
  5
5E
102
{ACAD_REACTORS
330
45
102
}
330
45
100
AcDbXrecord
280
     1
  1
0割付平面図
  1
*わ*
  1
*
  1
*
 70
     0
  1
*
  1
*
  0
XRECORD
  5
5F
102
{ACAD_REACTORS
330
45
102
}
330
45
100
AcDbXrecord
280
     1
  1
0潅水平面
  1
*三*
  1
*
  1
*
 70
     0
  1
*
  1
*
  0
XRECORD
  5
60
102
{ACAD_REACTORS
330
45
102
}
330
45
100
AcDbXrecord
280
     1
  1
0計画平面
  1
*け*
  1
*
  1
*
 70
     0
  1
*
  1
*
  0
XRECORD
  5
61
102
{ACAD_REACTORS
330
45
102
}
330
45
100
AcDbXrecord
280
     1
  1
0高木植栽
  1
*こ*
  1
*
  1
*
 70
     0
  1
*
  1
*
  0
XRECORD
  5
62
102
{ACAD_REACTORS
330
45
102
}
330
45
100
AcDbXrecord
280
     1
  1
0施設平面
  1
*し*
  1
*
  1
*
 70
     0
  1
*
  1
*
  0
XRECORD
  5
63
102
{ACAD_REACTORS
330
45
102
}
330
45
100
AcDbXrecord
280
     1
  1
0床内
  1
FI-*
  1
*
  1
*
 70
     0
  1
*
  1
*
  0
XRECORD
  5
64
102
{ACAD_REACTORS
330
45
102
}
330
45
100
AcDbXrecord
280
     1
  1
0床壁
  1
FW*
  1
*
  1
*
 70
     0
  1
*
  1
*
  0
XRECORD
  5
65
102
{ACAD_REACTORS
330
45
102
}
330
45
100
AcDbXrecord
280
     1
  1
0照明配置図
  1
*め*
  1
*
  1
*
 70
     0
  1
*
  1
*
  0
XRECORD
  5
66
102
{ACAD_REACTORS
330
45
102
}
330
45
100
AcDbXrecord
280
     1
  1
0詳細図
  1
*-d
  1
*
  1
*
 70
     0
  1
*
  1
*
  0
XRECORD
  5
67
102
{ACAD_REACTORS
330
45
102
}
330
45
100
AcDbXrecord
280
     1
  1
0植栽基盤
  1
*ど*
  1
*
  1
*
 70
     0
  1
*
  1
*
  0
XRECORD
  5
68
102
{ACAD_REACTORS
330
45
102
}
330
45
100
AcDbXrecord
280
     1
  1
0全体工区区分図
  1
*ぜ*
  1
*
  1
*
 70
     0
  1
*
  1
*
  0
XRECORD
  5
69
102
{ACAD_REACTORS
330
45
102
}
330
45
100
AcDbXrecord
280
     1
  1
0総合図off
  1
*-s
  1
*
  1
*
 70
     0
  1
*
  1
*
  0
XRECORD
  5
6A
102
{ACAD_REACTORS
330
45
102
}
330
45
100
AcDbXrecord
280
     1
  1
0総合図枠
  1
*-2
  1
*
  1
*
 70
     0
  1
*
  1
*
  0
XRECORD
  5
6B
102
{ACAD_REACTORS
330
45
102
}
330
45
100
AcDbXrecord
280
     1
  1
0低木
  1
*て*
  1
*
  1
*
 70
     0
  1
*
  1
*
  0
XRECORD
  5
6C
102
{ACAD_REACTORS
330
45
102
}
330
45
100
AcDbXrecord
280
     1
  1
0排水平面
  1
*は*
  1
*
  1
*
 70
     0
  1
*
  1
*
  0
XRECORD
  5
6D
102
{ACAD_REACTORS
330
45
102
}
330
45
100
AcDbXrecord
280
     1
  1
0平詳枠
  1
*-1
  1
*
  1
*
 70
     0
  1
*
  1
*
  0
XRECORD
  5
6E
102
{ACAD_REACTORS
330
45
102
}
330
45
100
AcDbXrecord
280
     1
  1
0擁壁平面図
  1
*よ*
  1
*
  1
*
 70
     0
  1
*
  1
*
  0
XRECORD
  5
6F
102
{ACAD_REACTORS
330
45
102
}
330
45
100
AcDbXrecord
280
     1
  1
1
  1
*
  1
*
  1
*
 70
     0
  1
*
  1
*
  0
XRECORD
  5
70
102
{ACAD_REACTORS
330
45
102
}
330
45
100
AcDbXrecord
280
     1
  1
10
  1
*
  1
10
  1
*
 70
     0
  1
*
  1
*
  0
XRECORD
  5
71
102
{ACAD_REACTORS
330
45
102
}
330
45
100
AcDbXrecord
280
     1
  1
100
  1
50*
  1
*
  1
*
 70
     0
  1
*
  1
*
  0
XRECORD
  5
72
102
{ACAD_REACTORS
330
45
102
}
330
45
100
AcDbXrecord
280
     1
  1
10植栽平面図
  1
00*,02*,0I*
  1
*
  1
*
 70
     0
  1
*
  1
*
  0
XRECORD
  5
73
102
{ACAD_REACTORS
330
45
102
}
330
45
100
AcDbXrecord
280
     1
  1
11
  1
11*
  1
*
  1
*
 70
     0
  1
*
  1
*
  0
XRECORD
  5
74
102
{ACAD_REACTORS
330
45
102
}
330
45
100
AcDbXrecord
280
     1
  1
1111
  1
*-50
  1
*
  1
*
 70
     0
  1
*
  1
*
  0
XRECORD
  5
75
102
{ACAD_REACTORS
330
45
102
}
330
45
100
AcDbXrecord
280
     1
  1
11寸法図
  1
00*,02*,0K*,03*
  1
*
  1
*
 70
     0
  1
*
  1
*
  0
XRECORD
  5
76
102
{ACAD_REACTORS
330
45
102
}
330
45
100
AcDbXrecord
280
     1
  1
12
  1
*
  1
*12
  1
*
 70
     0
  1
*
  1
*
  0
XRECORD
  5
77
102
{ACAD_REACTORS
330
45
102
}
330
45
100
AcDbXrecord
280
     1
  1
19
  1
*19*
  1
*
  1
*
 70
     0
  1
*
  1
*
  0
XRECORD
  5
78
102
{ACAD_REACTORS
330
45
102
}
330
45
100
AcDbXrecord
280
     1
  1
１Ｆ床伏OFF
  1
-*
  1
*
  1
*
 70
     0
  1
*
  1
*
  0
XRECORD
  5
79
102
{ACAD_REACTORS
330
45
102
}
330
45
100
AcDbXrecord
280
     1
  1
1階
  1
*1階*
  1
*
  1
*
 70
     0
  1
*
  1
*
  0
XRECORD
  5
7A
102
{ACAD_REACTORS
330
45
102
}
330
45
100
AcDbXrecord
280
     1
  1
1床
  1
F-*
  1
*
  1
*
 70
     0
  1
*
  1
*
  0
XRECORD
  5
7B
102
{ACAD_REACTORS
330
45
102
}
330
45
100
AcDbXrecord
280
     1
  1
1芯
  1
1*
  1
*
  1
*
 70
     0
  1
*
  1
*
  0
XRECORD
  5
7C
102
{ACAD_REACTORS
330
45
102
}
330
45
100
AcDbXrecord
280
     1
  1
1芯線
  1
1*
  1
*
  1
*
 70
     0
  1
*
  1
*
  0
XRECORD
  5
7D
102
{ACAD_REACTORS
330
45
102
}
330
45
100
AcDbXrecord
280
     1
  1
20
  1
*20
  1
*
  1
*
 70
     0
  1
*
  1
*
  0
XRECORD
  5
7E
102
{ACAD_REACTORS
330
45
102
}
330
45
100
AcDbXrecord
280
     1
  1
21
  1
*
  1
21
  1
*
 70
     0
  1
*
  1
*
  0
XRECORD
  5
7F
102
{ACAD_REACTORS
330
45
102
}
330
45
100
AcDbXrecord
280
     1
  1
250
  1
*250*
  1
*
  1
*
 70
     0
  1
*
  1
*
  0
XRECORD
  5
80
102
{ACAD_REACTORS
330
45
102
}
330
45
100
AcDbXrecord
280
     1
  1
2fmiage
  1
*
  1
*
  1
*
 70
     1
  1
*
  1
*
  0
XRECORD
  5
81
102
{ACAD_REACTORS
330
45
102
}
330
45
100
AcDbXrecord
280
     1
  1
2躯体
  1
2*
  1
*
  1
*
 70
     0
  1
*
  1
*
  0
XRECORD
  5
82
102
{ACAD_REACTORS
330
45
102
}
330
45
100
AcDbXrecord
280
     1
  1
2断面
  1
2*
  1
*
  1
*
 70
     0
  1
*
  1
*
  0
XRECORD
  5
83
102
{ACAD_REACTORS
330
45
102
}
330
45
100
AcDbXrecord
280
     1
  1
2壁
  1
W-*
  1
*
  1
*
 70
     0
  1
*
  1
*
  0
XRECORD
  5
84
102
{ACAD_REACTORS
330
45
102
}
330
45
100
AcDbXrecord
280
     1
  1
300
  1
*300*
  1
*
  1
*
 70
     0
  1
*
  1
*
  0
XRECORD
  5
85
102
{ACAD_REACTORS
330
45
102
}
330
45
100
AcDbXrecord
280
     1
  1
32
  1
*
  1
32
  1
*
 70
     0
  1
*
  1
*
  0
XRECORD
  5
86
102
{ACAD_REACTORS
330
45
102
}
330
45
100
AcDbXrecord
280
     1
  1
333
  1
*
  1
*
  1
*
 70
    12
  1
*
  1
*
  0
XRECORD
  5
87
102
{ACAD_REACTORS
330
45
102
}
330
45
100
AcDbXrecord
280
     1
  1
37
  1
*37
  1
*
  1
*
 70
     0
  1
*
  1
*
  0
XRECORD
  5
88
102
{ACAD_REACTORS
330
45
102
}
330
45
100
AcDbXrecord
280
     1
  1
3D
  1
3D*
  1
*
  1
*
 70
     0
  1
*
  1
*
  0
XRECORD
  5
89
102
{ACAD_REACTORS
330
45
102
}
330
45
100
AcDbXrecord
280
     1
  1
3開口
  1
3*
  1
*
  1
*
 70
     0
  1
*
  1
*
  0
XRECORD
  5
8A
102
{ACAD_REACTORS
330
45
102
}
330
45
100
AcDbXrecord
280
     1
  1
3見掛り
  1
3*
  1
*
  1
*
 70
     0
  1
*
  1
*
  0
XRECORD
  5
8B
102
{ACAD_REACTORS
330
45
102
}
330
45
100
AcDbXrecord
280
     1
  1
3天井内
  1
CI-*
  1
*
  1
*
 70
     0
  1
*
  1
*
  0
XRECORD
  5
8C
102
{ACAD_REACTORS
330
45
102
}
330
45
100
AcDbXrecord
280
     1
  1
41
  1
41
  1
*
  1
*
 70
     1
  1
*
  1
*
  0
XRECORD
  5
8D
102
{ACAD_REACTORS
330
45
102
}
330
45
100
AcDbXrecord
280
     1
  1
4仕上げ
  1
4*
  1
*
  1
*
 70
     0
  1
*
  1
*
  0
XRECORD
  5
8E
102
{ACAD_REACTORS
330
45
102
}
330
45
100
AcDbXrecord
280
     1
  1
4天井
  1
C-*
  1
*
  1
*
 70
     0
  1
*
  1
*
  0
XRECORD
  5
8F
102
{ACAD_REACTORS
330
45
102
}
330
45
100
AcDbXrecord
280
     1
  1
5
  1
*5
  1
*
  1
*
 70
     1
  1
*
  1
*
  0
XRECORD
  5
90
102
{ACAD_REACTORS
330
45
102
}
330
45
100
AcDbXrecord
280
     1
  1
50
  1
*-50
  1
*
  1
*
 70
     0
  1
*
  1
*
  0
XRECORD
  5
91
102
{ACAD_REACTORS
330
45
102
}
330
45
100
AcDbXrecord
280
     1
  1
50off
  1
50*
  1
*
  1
*
 70
     0
  1
*
  1
*
  0
XRECORD
  5
92
102
{ACAD_REACTORS
330
45
102
}
330
45
100
AcDbXrecord
280
     1
  1
51-52
  1
5*
  1
*
  1
*
 70
     0
  1
*
  1
*
  0
XRECORD
  5
93
102
{ACAD_REACTORS
330
45
102
}
330
45
100
AcDbXrecord
280
     1
  1
555
  1
*
  1
*
  1
*
 70
     1
  1
*
  1
*
  0
XRECORD
  5
94
102
{ACAD_REACTORS
330
45
102
}
330
45
100
AcDbXrecord
280
     1
  1
5寸法
  1
5*
  1
*
  1
*
 70
     0
  1
*
  1
*
  0
XRECORD
  5
95
102
{ACAD_REACTORS
330
45
102
}
330
45
100
AcDbXrecord
280
     1
  1
5文字
  1
*TXT*
  1
*
  1
*
 70
     0
  1
*
  1
*
  0
XRECORD
  5
96
102
{ACAD_REACTORS
330
45
102
}
330
45
100
AcDbXrecord
280
     1
  1
6
  1
*
  1
6
  1
*
 70
     0
  1
*
  1
*
  0
XRECORD
  5
97
102
{ACAD_REACTORS
330
45
102
}
330
45
100
AcDbXrecord
280
     1
  1
66-躯体図
  1
0,Defpoints,HOJO,雲マーク,000*,010*,020*,1*,400*,470*,520*,570*,08*
  1
*
  1
*
 70
     0
  1
*
  1
*
  0
XRECORD
  5
98
102
{ACAD_REACTORS
330
45
102
}
330
45
100
AcDbXrecord
280
     1
  1
66躯体図
  1
0,Defpoints,HOJO,雲マーク,000*,010*,020*,1*,400*,470*,520*,570*,08*,6*
  1
*
  1
*
 70
     0
  1
*
  1
*
  0
XRECORD
  5
99
102
{ACAD_REACTORS
330
45
102
}
330
45
100
AcDbXrecord
280
     1
  1
6記号
  1
6*
  1
*
  1
*
 70
     0
  1
*
  1
*
  0
XRECORD
  5
9A
102
{ACAD_REACTORS
330
45
102
}
330
45
100
AcDbXrecord
280
     1
  1
6文字
  1
6*
  1
*
  1
*
 70
     0
  1
*
  1
*
  0
XRECORD
  5
9B
102
{ACAD_REACTORS
330
45
102
}
330
45
100
AcDbXrecord
280
     1
  1
6保留
  1
*_a
  1
*
  1
*
 70
     0
  1
*
  1
*
  0
XRECORD
  5
9C
102
{ACAD_REACTORS
330
45
102
}
330
45
100
AcDbXrecord
280
     1
  1
767
  1
*
  1
*
  1
*
 70
     0
  1
*
  1
*
  0
XRECORD
  5
9D
102
{ACAD_REACTORS
330
45
102
}
330
45
100
AcDbXrecord
280
     1
  1
767SE13-0...$
  1
*
  1
*
  1
*
 70
     0
  1
*
  1
*
  0
XRECORD
  5
9E
102
{ACAD_REACTORS
330
45
102
}
330
45
100
AcDbXrecord
280
     1
  1
767SE13-07-99$0$
  1
*
  1
*
  1
*
 70
     0
  1
*
  1
*
  0
XRECORD
  5
9F
102
{ACAD_REACTORS
330
45
102
}
330
45
100
AcDbXrecord
280
     1
  1
7記号
  1
7*
  1
*
  1
*
 70
     0
  1
*
  1
*
  0
XRECORD
  5
A0
102
{ACAD_REACTORS
330
45
102
}
330
45
100
AcDbXrecord
280
     1
  1
8
  1
*
  1
8
  1
*
 70
    12
  1
*
  1
*
  0
XRECORD
  5
A1
102
{ACAD_REACTORS
330
45
102
}
330
45
100
AcDbXrecord
280
     1
  1
8寸法
  1
8*
  1
*
  1
*
 70
     0
  1
*
  1
*
  0
XRECORD
  5
A2
102
{ACAD_REACTORS
330
45
102
}
330
45
100
AcDbXrecord
280
     1
  1
8設備
  1
8*
  1
*
  1
*
 70
     0
  1
*
  1
*
  0
XRECORD
  5
A3
102
{ACAD_REACTORS
330
45
102
}
330
45
100
AcDbXrecord
280
     1
  1
9文字
  1
9*
  1
*
  1
*
 70
     0
  1
*
  1
*
  0
XRECORD
  5
A4
102
{ACAD_REACTORS
330
45
102
}
330
45
100
AcDbXrecord
280
     1
  1
9目地
  1
9*
  1
*
  1
*
 70
     0
  1
*
  1
*
  0
XRECORD
  5
A5
102
{ACAD_REACTORS
330
45
102
}
330
45
100
AcDbXrecord
280
     1
  1
A
  1
A*
  1
*
  1
*
 70
     0
  1
*
  1
*
  0
XRECORD
  5
A6
102
{ACAD_REACTORS
330
45
102
}
330
45
100
AcDbXrecord
280
     1
  1
A-
  1
A-*
  1
*
  1
*
 70
     0
  1
*
  1
*
  0
XRECORD
  5
A7
102
{ACAD_REACTORS
330
45
102
}
330
45
100
AcDbXrecord
280
     1
  1
A(枠･表)を表示
  1
A*
  1
*
  1
*
 70
     0
  1
*
  1
*
  0
XRECORD
  5
A8
102
{ACAD_REACTORS
330
45
102
}
330
45
100
AcDbXrecord
280
     1
  1
A01
  1
*A01*
  1
*
  1
*
 70
     0
  1
*
  1
*
  0
XRECORD
  5
A9
102
{ACAD_REACTORS
330
45
102
}
330
45
100
AcDbXrecord
280
     1
  1
A1.DEMO-KEY NOTE
  1
*-D-*
  1
*
  1
*
 70
     0
  1
*
  1
*
  0
XRECORD
  5
AA
102
{ACAD_REACTORS
330
45
102
}
330
45
100
AcDbXrecord
280
     1
  1
A2. CONS-KEY NOTE
  1
*-C-*
  1
*
  1
*
 70
     0
  1
*
  1
*
  0
XRECORD
  5
AB
102
{ACAD_REACTORS
330
45
102
}
330
45
100
AcDbXrecord
280
     1
  1
A21
  1
*A21*
  1
*
  1
*
 70
     0
  1
*
  1
*
  0
XRECORD
  5
AC
102
{ACAD_REACTORS
330
45
102
}
330
45
100
AcDbXrecord
280
     1
  1
A3
  1
*A3
  1
*
  1
*
 70
     0
  1
*
  1
*
  0
XRECORD
  5
AD
102
{ACAD_REACTORS
330
45
102
}
330
45
100
AcDbXrecord
280
     1
  1
A3. RCP-LAYER
  1
*R-SCH*
  1
*
  1
*
 70
     0
  1
*
  1
*
  0
XRECORD
  5
AE
102
{ACAD_REACTORS
330
45
102
}
330
45
100
AcDbXrecord
280
     1
  1
A3D. RCP_DEMO-KEY NOTE
  1
*-RD-*
  1
*
  1
*
 70
     0
  1
*
  1
*
  0
XRECORD
  5
AF
102
{ACAD_REACTORS
330
45
102
}
330
45
100
AcDbXrecord
280
     1
  1
A4. P&T- KEY NOTE
  1
*T-SCH*
  1
*
  1
*
 70
     0
  1
*
  1
*
  0
XRECORD
  5
B0
102
{ACAD_REACTORS
330
45
102
}
330
45
100
AcDbXrecord
280
     1
  1
A4D. EL_DEMO-KEY NOTE
  1
*-ED-*
  1
*
  1
*
 70
     0
  1
*
  1
*
  0
XRECORD
  5
B1
102
{ACAD_REACTORS
330
45
102
}
330
45
100
AcDbXrecord
280
     1
  1
A5. FINISH-KEY NOTE
  1
*-N-*
  1
*
  1
*
 70
     0
  1
*
  1
*
  0
XRECORD
  5
B2
102
{ACAD_REACTORS
330
45
102
}
330
45
100
AcDbXrecord
280
     1
  1
A6. FURN-KEY NOTE
  1
*-F-*
  1
*
  1
*
 70
     0
  1
*
  1
*
  0
XRECORD
  5
B3
102
{ACAD_REACTORS
330
45
102
}
330
45
100
AcDbXrecord
280
     1
  1
aa
  1
*aa*
  1
*
  1
*
 70
     0
  1
*
  1
*
  0
XRECORD
  5
B4
102
{ACAD_REACTORS
330
45
102
}
330
45
100
AcDbXrecord
280
     1
  1
aaa
  1
*
  1
*
  1
*
 70
     0
  1
*
  1
*
  0
XRECORD
  5
B5
102
{ACAD_REACTORS
330
45
102
}
330
45
100
AcDbXrecord
280
     1
  1
AB棟
  1
ＡＢ棟*
  1
*
  1
*
 70
     0
  1
*
  1
*
  0
XRECORD
  5
B6
102
{ACAD_REACTORS
330
45
102
}
330
45
100
AcDbXrecord
280
     1
  1
ＡＢ棟
  1
ＡＢ棟*
  1
*
  1
*
 70
     0
  1
*
  1
*
  0
XRECORD
  5
B7
102
{ACAD_REACTORS
330
45
102
}
330
45
100
AcDbXrecord
280
     1
  1
ACTIVE
  1
C.*
  1
*
  1
*
 70
     0
  1
*
  1
*
  0
XRECORD
  5
B8
102
{ACAD_REACTORS
330
45
102
}
330
45
100
AcDbXrecord
280
     1
  1
ACTIVE2
  1
B-*
  1
*
  1
*
 70
     0
  1
*
  1
*
  0
XRECORD
  5
B9
102
{ACAD_REACTORS
330
45
102
}
330
45
100
AcDbXrecord
280
     1
  1
ALC
  1
*ALC
  1
*
  1
*
 70
     0
  1
*
  1
*
  0
XRECORD
  5
BA
102
{ACAD_REACTORS
330
45
102
}
330
45
100
AcDbXrecord
280
     1
  1
ALL
  1
*
  1
*
  1
*
 70
     3
  1
*
  1
*
  0
XRECORD
  5
BB
102
{ACAD_REACTORS
330
45
102
}
330
45
100
AcDbXrecord
280
     1
  1
all選択
  1
*
  1
*
  1
*
 70
     0
  1
*
  1
*
  0
XRECORD
  5
BC
102
{ACAD_REACTORS
330
45
102
}
330
45
100
AcDbXrecord
280
     1
  1
AMENAGEMENT
  1
*
  1
*
  1
*
 70
    13
  1
*
  1
*
  0
XRECORD
  5
BD
102
{ACAD_REACTORS
330
45
102
}
330
45
100
AcDbXrecord
280
     1
  1
AQ
  1
AQ*
  1
*
  1
*
 70
     0
  1
*
  1
*
  0
XRECORD
  5
BE
102
{ACAD_REACTORS
330
45
102
}
330
45
100
AcDbXrecord
280
     1
  1
ARBOL
  1
*ARBOL*
  1
*
  1
*
 70
     0
  1
*
  1
*
  0
XRECORD
  5
BF
102
{ACAD_REACTORS
330
45
102
}
330
45
100
AcDbXrecord
280
     1
  1
AREA
  1
*AREA*
  1
*
  1
*
 70
     0
  1
*
  1
*
  0
XRECORD
  5
C0
102
{ACAD_REACTORS
330
45
102
}
330
45
100
AcDbXrecord
280
     1
  1
AREA-SG
  1
*6AREA-SG
  1
6
  1
*
 70
     0
  1
*
  1
*
  0
XRECORD
  5
C1
102
{ACAD_REACTORS
330
45
102
}
330
45
100
AcDbXrecord
280
     1
  1
AS1
  1
*AS1
  1
*
  1
*
 70
     0
  1
*
  1
*
  0
XRECORD
  5
C2
102
{ACAD_REACTORS
330
45
102
}
330
45
100
AcDbXrecord
280
     1
  1
aハッチング
  1
a*
  1
*
  1
*
 70
     0
  1
*
  1
*
  0
XRECORD
  5
C3
102
{ACAD_REACTORS
330
45
102
}
330
45
100
AcDbXrecord
280
     1
  1
A空調
  1
*
  1
*
  1
*
 70
     0
  1
*
  1
KUCYOU
  0
XRECORD
  5
C4
102
{ACAD_REACTORS
330
45
102
}
330
45
100
AcDbXrecord
280
     1
  1
B
  1
B*
  1
*
  1
*
 70
     0
  1
*
  1
*
  0
XRECORD
  5
C5
102
{ACAD_REACTORS
330
45
102
}
330
45
100
AcDbXrecord
280
     1
  1
B(基準)を表示
  1
B*
  1
*
  1
*
 70
     0
  1
*
  1
*
  0
XRECORD
  5
C6
102
{ACAD_REACTORS
330
45
102
}
330
45
100
AcDbXrecord
280
     1
  1
B2
  1
B2*
  1
*
  1
*
 70
     1
  1
*
  1
*
  0
XRECORD
  5
C7
102
{ACAD_REACTORS
330
45
102
}
330
45
100
AcDbXrecord
280
     1
  1
B3
  1
B3*
  1
*
  1
*
 70
     0
  1
*
  1
*
  0
XRECORD
  5
C8
102
{ACAD_REACTORS
330
45
102
}
330
45
100
AcDbXrecord
280
     1
  1
BAL
  1
*BAL
  1
*
  1
*
 70
     0
  1
*
  1
*
  0
XRECORD
  5
C9
102
{ACAD_REACTORS
330
45
102
}
330
45
100
AcDbXrecord
280
     1
  1
baru
  1
*51A
  1
*
  1
*
 70
     0
  1
*
  1
*
  0
XRECORD
  5
CA
102
{ACAD_REACTORS
330
45
102
}
330
45
100
AcDbXrecord
280
     1
  1
baru2
  1
*AS1A
  1
*
  1
*
 70
     0
  1
*
  1
*
  0
XRECORD
  5
CB
102
{ACAD_REACTORS
330
45
102
}
330
45
100
AcDbXrecord
280
     1
  1
BASE
  1
*I4BASE
  1
*
  1
*
 70
     0
  1
*
  1
*
  0
XRECORD
  5
CC
102
{ACAD_REACTORS
330
45
102
}
330
45
100
AcDbXrecord
280
     1
  1
bb
  1
rogarpissu,block
  1
*
  1
*
 70
     0
  1
*
  1
*
  0
XRECORD
  5
CD
102
{ACAD_REACTORS
330
45
102
}
330
45
100
AcDbXrecord
280
     1
  1
bbbb
  1
prova
  1
*
  1
*
 70
    55
  1
*
  1
*
  0
XRECORD
  5
CE
102
{ACAD_REACTORS
330
45
102
}
330
45
100
AcDbXrecord
280
     1
  1
beam
  1
*beam*
  1
*
  1
*
 70
     0
  1
*
  1
*
  0
XRECORD
  5
CF
102
{ACAD_REACTORS
330
45
102
}
330
45
100
AcDbXrecord
280
     1
  1
blocchi
  1
mqa*
  1
*
  1
*
 70
     0
  1
*
  1
*
  0
XRECORD
  5
D0
102
{ACAD_REACTORS
330
45
102
}
330
45
100
AcDbXrecord
280
     1
  1
blue
  1
*
  1
blue
  1
*
 70
     0
  1
*
  1
*
  0
XRECORD
  5
D1
102
{ACAD_REACTORS
330
45
102
}
330
45
100
AcDbXrecord
280
     1
  1
BSM
  1
*BSM*
  1
*
  1
*
 70
     0
  1
*
  1
*
  0
XRECORD
  5
D2
102
{ACAD_REACTORS
330
45
102
}
330
45
100
AcDbXrecord
280
     1
  1
b階段
  1
b*
  1
*
  1
*
 70
     0
  1
*
  1
*
  0
XRECORD
  5
D3
102
{ACAD_REACTORS
330
45
102
}
330
45
100
AcDbXrecord
280
     1
  1
B電気
  1
*
  1
*
  1
*
 70
     0
  1
*
  1
DENKI
  0
XRECORD
  5
D4
102
{ACAD_REACTORS
330
45
102
}
330
45
100
AcDbXrecord
280
     1
  1
c
  1
c*
  1
*
  1
*
 70
    61
  1
*
  1
*
  0
XRECORD
  5
D5
102
{ACAD_REACTORS
330
45
102
}
330
45
100
AcDbXrecord
280
     1
  1
c-block
  1
c-*
  1
*
  1
*
 70
     0
  1
*
  1
*
  0
XRECORD
  5
D6
102
{ACAD_REACTORS
330
45
102
}
330
45
100
AcDbXrecord
280
     1
  1
c-block-2
  1
c-*
  1
*
  1
*
 70
  1024
  1
*
  1
*
  0
XRECORD
  5
D7
102
{ACAD_REACTORS
330
45
102
}
330
45
100
AcDbXrecord
280
     1
  1
C(寸･文･記)を表示
  1
C*
  1
*
  1
*
 70
     0
  1
*
  1
*
  0
XRECORD
  5
D8
102
{ACAD_REACTORS
330
45
102
}
330
45
100
AcDbXrecord
280
     1
  1
cajetin
  1
caj*
  1
*
  1
*
 70
     0
  1
*
  1
*
  0
XRECORD
  5
D9
102
{ACAD_REACTORS
330
45
102
}
330
45
100
AcDbXrecord
280
     1
  1
cc
  1
*
  1
*
  1
*
 70
     0
  1
*
  1
*
  0
XRECORD
  5
DA
102
{ACAD_REACTORS
330
45
102
}
330
45
100
AcDbXrecord
280
     1
  1
CD06
  1
CD06*
  1
*
  1
*
 70
     0
  1
*
  1
*
  0
XRECORD
  5
DB
102
{ACAD_REACTORS
330
45
102
}
330
45
100
AcDbXrecord
280
     1
  1
ＣＤ棟
  1
T15-*
  1
*
  1
*
 70
     0
  1
*
  1
*
  0
XRECORD
  5
DC
102
{ACAD_REACTORS
330
45
102
}
330
45
100
AcDbXrecord
280
     1
  1
ceiling
  1
*ceiling*
  1
*
  1
*
 70
     0
  1
*
  1
*
  0
XRECORD
  5
DD
102
{ACAD_REACTORS
330
45
102
}
330
45
100
AcDbXrecord
280
     1
  1
CEILINGS XREF
  1
*CE-SUSPENDED-CEILINGS
  1
*
  1
*
 70
     0
  1
*
  1
*
  0
XRECORD
  5
DE
102
{ACAD_REACTORS
330
45
102
}
330
45
100
AcDbXrecord
280
     1
  1
CEL
  1
*
  1
*
  1
*
 70
     0
  1
*
  1
*
  0
XRECORD
  5
DF
102
{ACAD_REACTORS
330
45
102
}
330
45
100
AcDbXrecord
280
     1
  1
che
  1
che*
  1
*
  1
*
 70
     0
  1
*
  1
*
  0
XRECORD
  5
E0
102
{ACAD_REACTORS
330
45
102
}
330
45
100
AcDbXrecord
280
     1
  1
chika
  1
2躯体構造体点線
  1
211
  1
*
 70
     0
  1
*
  1
*
  0
XRECORD
  5
E1
102
{ACAD_REACTORS
330
45
102
}
330
45
100
AcDbXrecord
280
     1
  1
CLG
  1
*CLG*
  1
*
  1
*
 70
     0
  1
*
  1
*
  0
XRECORD
  5
E2
102
{ACAD_REACTORS
330
45
102
}
330
45
100
AcDbXrecord
280
     1
  1
COL
  1
*COL*
  1
*
  1
*
 70
     0
  1
*
  1
*
  0
XRECORD
  5
E3
102
{ACAD_REACTORS
330
45
102
}
330
45
100
AcDbXrecord
280
     1
  1
cold beam
  1
*cold*
  1
*
  1
*
 70
     0
  1
*
  1
*
  0
XRECORD
  5
E4
102
{ACAD_REACTORS
330
45
102
}
330
45
100
AcDbXrecord
280
     1
  1
colu
  1
*colu*
  1
*
  1
*
 70
     0
  1
*
  1
*
  0
XRECORD
  5
E5
102
{ACAD_REACTORS
330
45
102
}
330
45
100
AcDbXrecord
280
     1
  1
com
  1
com*
  1
*
  1
*
 70
     0
  1
*
  1
*
  0
XRECORD
  5
E6
102
{ACAD_REACTORS
330
45
102
}
330
45
100
AcDbXrecord
280
     1
  1
con
  1
c-*
  1
*
  1
*
 70
     0
  1
*
  1
*
  0
XRECORD
  5
E7
102
{ACAD_REACTORS
330
45
102
}
330
45
100
AcDbXrecord
280
     1
  1
CRG
  1
tca-6f|*CRG*
  1
*
  1
*
 70
     0
  1
*
  1
*
  0
XRECORD
  5
E8
102
{ACAD_REACTORS
330
45
102
}
330
45
100
AcDbXrecord
280
     1
  1
cyan
  1
*
  1
cyan
  1
*
 70
     0
  1
*
  1
*
  0
XRECORD
  5
E9
102
{ACAD_REACTORS
330
45
102
}
330
45
100
AcDbXrecord
280
     1
  1
C衛生
  1
*
  1
*
  1
*
 70
     0
  1
*
  1
EISEI
  0
XRECORD
  5
EA
102
{ACAD_REACTORS
330
45
102
}
330
45
100
AcDbXrecord
280
     1
  1
C街区関連
  1
*
  1
*
  1
*
 70
  1024
  1
*
  1
*
  0
XRECORD
  5
EB
102
{ACAD_REACTORS
330
45
102
}
330
45
100
AcDbXrecord
280
     1
  1
c雑金物
  1
c*
  1
*
  1
*
 70
     0
  1
*
  1
*
  0
XRECORD
  5
EC
102
{ACAD_REACTORS
330
45
102
}
330
45
100
AcDbXrecord
280
     1
  1
C打計画図
  1
001*,002*,003*,004*,005*,007*,012*,015*,016*,017*,018*,019*,020*,021*,049*,050*,051*,052*,053*,054*,055*,056*,057*,058*,059*,060*,061*,062*,063*,064*,065*,066*,067*,068*,069*,070*,071*,072*,073*,074*,075*
  1
*
  1
*
 70
     0
  1
*
  1
*
  0
XRECORD
  5
ED
102
{ACAD_REACTORS
330
45
102
}
330
45
100
AcDbXrecord
280
     1
  1
D
  1
D*
  1
*
  1
*
 70
     0
  1
*
  1
*
  0
XRECORD
  5
EE
102
{ACAD_REACTORS
330
45
102
}
330
45
100
AcDbXrecord
280
     1
  1
D(表現補助)を表示
  1
D*
  1
*
  1
*
 70
     0
  1
*
  1
*
  0
XRECORD
  5
EF
102
{ACAD_REACTORS
330
45
102
}
330
45
100
AcDbXrecord
280
     1
  1
Ｄ・墓地　施設平面
  1
*も*
  1
*
  1
*
 70
     0
  1
*
  1
*
  0
XRECORD
  5
F0
102
{ACAD_REACTORS
330
45
102
}
330
45
100
AcDbXrecord
280
     1
  1
D16
  1
D16*
  1
*
  1
*
 70
     0
  1
*
  1
*
  0
XRECORD
  5
F1
102
{ACAD_REACTORS
330
45
102
}
330
45
100
AcDbXrecord
280
     1
  1
DASHED
  1
*
  1
*
  1
DASHED
 70
     0
  1
*
  1
*
  0
XRECORD
  5
F2
102
{ACAD_REACTORS
330
45
102
}
330
45
100
AcDbXrecord
280
     1
  1
DASHED2
  1
*
  1
*
  1
DASHED
 70
     0
  1
*
  1
*
  0
XRECORD
  5
F3
102
{ACAD_REACTORS
330
45
102
}
330
45
100
AcDbXrecord
280
     1
  1
DEMO
  1
*DEMO*
  1
*
  1
*
 70
     0
  1
*
  1
*
  0
XRECORD
  5
F4
102
{ACAD_REACTORS
330
45
102
}
330
45
100
AcDbXrecord
280
     1
  1
DEMOLITION
  1
*DEMO*
  1
*
  1
*
 70
     0
  1
*
  1
*
  0
XRECORD
  5
F5
102
{ACAD_REACTORS
330
45
102
}
330
45
100
AcDbXrecord
280
     1
  1
detail
  1
d*
  1
*
  1
*
 70
     0
  1
*
  1
*
  0
XRECORD
  5
F6
102
{ACAD_REACTORS
330
45
102
}
330
45
100
AcDbXrecord
280
     1
  1
details
  1
det-*
  1
*
  1
*
 70
     0
  1
*
  1
*
  0
XRECORD
  5
F7
102
{ACAD_REACTORS
330
45
102
}
330
45
100
AcDbXrecord
280
     1
  1
DHED
  1
*DHED*
  1
*
  1
*
 70
     0
  1
*
  1
*
  0
XRECORD
  5
F8
102
{ACAD_REACTORS
330
45
102
}
330
45
100
AcDbXrecord
280
     1
  1
Dim
  1
*-Dim*
  1
*
  1
*
 70
     0
  1
*
  1
*
  0
XRECORD
  5
F9
102
{ACAD_REACTORS
330
45
102
}
330
45
100
AcDbXrecord
280
     1
  1
disegno
  1
ben*
  1
*
  1
*
 70
     0
  1
*
  1
*
  0
XRECORD
  5
FA
102
{ACAD_REACTORS
330
45
102
}
330
45
100
AcDbXrecord
280
     1
  1
DOORS
  1
*
  1
*
  1
*
 70
     0
  1
*
  1
*
  0
XRECORD
  5
FB
102
{ACAD_REACTORS
330
45
102
}
330
45
100
AcDbXrecord
280
     1
  1
DR
  1
DR*
  1
*
  1
*
 70
     0
  1
*
  1
*
  0
XRECORD
  5
FC
102
{ACAD_REACTORS
330
45
102
}
330
45
100
AcDbXrecord
280
     1
  1
DT
  1
DT*
  1
*
  1
*
 70
     0
  1
*
  1
*
  0
XRECORD
  5
FD
102
{ACAD_REACTORS
330
45
102
}
330
45
100
AcDbXrecord
280
     1
  1
d外構
  1
d*
  1
*
  1
*
 70
     0
  1
*
  1
*
  0
XRECORD
  5
FE
102
{ACAD_REACTORS
330
45
102
}
330
45
100
AcDbXrecord
280
     1
  1
Ｄ街区低木
  1
*て*
  1
*
  1
*
 70
     0
  1
*
  1
*
  0
XRECORD
  5
FF
102
{ACAD_REACTORS
330
45
102
}
330
45
100
AcDbXrecord
280
     1
  1
D割付平面
  1
*わ*
  1
*
  1
*
 70
     0
  1
*
  1
*
  0
XRECORD
  5
100
102
{ACAD_REACTORS
330
45
102
}
330
45
100
AcDbXrecord
280
     1
  1
Ｄ給水設備
  1
*ゆ*
  1
*
  1
*
 70
     0
  1
*
  1
*
  0
XRECORD
  5
101
102
{ACAD_REACTORS
330
45
102
}
330
45
100
AcDbXrecord
280
     1
  1
Ｄ計画高平面
  1
*さ*
  1
*
  1
*
 70
     0
  1
*
  1
*
  0
XRECORD
  5
102
102
{ACAD_REACTORS
330
45
102
}
330
45
100
AcDbXrecord
280
     1
  1
Ｄ計画平面
  1
*け*
  1
*
  1
*
 70
     0
  1
*
  1
*
  0
XRECORD
  5
103
102
{ACAD_REACTORS
330
45
102
}
330
45
100
AcDbXrecord
280
     1
  1
Ｄ工事区分
  1
*ぶ*
  1
*
  1
*
 70
     0
  1
*
  1
*
  0
XRECORD
  5
104
102
{ACAD_REACTORS
330
45
102
}
330
45
100
AcDbXrecord
280
     1
  1
Ｄ高木植栽
  1
*こ*
  1
*
  1
*
 70
     0
  1
*
  1
*
  0
XRECORD
  5
105
102
{ACAD_REACTORS
330
45
102
}
330
45
100
AcDbXrecord
280
     1
  1
Ｄ施設平面
  1
*し*
  1
*
  1
*
 70
     0
  1
*
  1
*
  0
XRECORD
  5
106
102
{ACAD_REACTORS
330
45
102
}
330
45
100
AcDbXrecord
280
     1
  1
Ｄ照明設備
  1
*め*
  1
*
  1
*
 70
     0
  1
*
  1
*
  0
XRECORD
  5
107
102
{ACAD_REACTORS
330
45
102
}
330
45
100
AcDbXrecord
280
     1
  1
Ｄ低木
  1
*て*
  1
*
  1
*
 70
     0
  1
*
  1
*
  0
XRECORD
  5
108
102
{ACAD_REACTORS
330
45
102
}
330
45
100
AcDbXrecord
280
     1
  1
Ｄ電気設備
  1
*で*
  1
*
  1
*
 70
     0
  1
*
  1
*
  0
XRECORD
  5
109
102
{ACAD_REACTORS
330
45
102
}
330
45
100
AcDbXrecord
280
     1
  1
Ｄ土壌改良
  1
*ど*
  1
*
  1
*
 70
     0
  1
*
  1
*
  0
XRECORD
  5
10A
102
{ACAD_REACTORS
330
45
102
}
330
45
100
AcDbXrecord
280
     1
  1
Ｄ排水平面
  1
*は*
  1
*
  1
*
 70
     0
  1
*
  1
*
  0
XRECORD
  5
10B
102
{ACAD_REACTORS
330
45
102
}
330
45
100
AcDbXrecord
280
     1
  1
D舗装平面
  1
*ほ*
  1
*
  1
*
 70
     0
  1
*
  1
*
  0
XRECORD
  5
10C
102
{ACAD_REACTORS
330
45
102
}
330
45
100
AcDbXrecord
280
     1
  1
Ｄ墓地施設平面
  1
*も*
  1
*
  1
*
 70
     0
  1
*
  1
*
  0
XRECORD
  5
10D
102
{ACAD_REACTORS
330
45
102
}
330
45
100
AcDbXrecord
280
     1
  1
D墓地排水
  1
*は*
  1
*
  1
*
 70
     0
  1
*
  1
*
  0
XRECORD
  5
10E
102
{ACAD_REACTORS
330
45
102
}
330
45
100
AcDbXrecord
280
     1
  1
E
  1
*E-*
  1
*
  1
*
 70
     0
  1
*
  1
*
  0
XRECORD
  5
10F
102
{ACAD_REACTORS
330
45
102
}
330
45
100
AcDbXrecord
280
     1
  1
E(点線系)を表示
  1
E*
  1
*
  1
*
 70
     0
  1
*
  1
*
  0
XRECORD
  5
110
102
{ACAD_REACTORS
330
45
102
}
330
45
100
AcDbXrecord
280
     1
  1
EEEE
  1
*
  1
*
  1
*
 70
  1804
  1
*
  1
*
  0
XRECORD
  5
111
102
{ACAD_REACTORS
330
45
102
}
330
45
100
AcDbXrecord
280
     1
  1
EISEI
  1
*4EISEI
  1
4
  1
*
 70
     0
  1
*
  1
*
  0
XRECORD
  5
112
102
{ACAD_REACTORS
330
45
102
}
330
45
100
AcDbXrecord
280
     1
  1
ele
  1
ele*
  1
*
  1
*
 70
     0
  1
*
  1
*
  0
XRECORD
  5
113
102
{ACAD_REACTORS
330
45
102
}
330
45
100
AcDbXrecord
280
     1
  1
elec
  1
01_elec-tgbt
  1
*
  1
*
 70
     0
  1
*
  1
*
  0
XRECORD
  5
114
102
{ACAD_REACTORS
330
45
102
}
330
45
100
AcDbXrecord
280
     1
  1
ERAS1F
  1
*2ERAS1F
  1
*
  1
*
 70
     0
  1
*
  1
*
  0
XRECORD
  5
115
102
{ACAD_REACTORS
330
45
102
}
330
45
100
AcDbXrecord
280
     1
  1
existing
  1
afl-* 
  1
*
  1
*
 70
     0
  1
*
  1
*
  0
XRECORD
  5
116
102
{ACAD_REACTORS
330
45
102
}
330
45
100
AcDbXrecord
280
     1
  1
Exit
  1
*exit*
  1
*
  1
*
 70
     0
  1
*
  1
*
  0
XRECORD
  5
117
102
{ACAD_REACTORS
330
45
102
}
330
45
100
AcDbXrecord
280
     1
  1
F
  1
F*
  1
*
  1
*
 70
     0
  1
*
  1
*
  0
XRECORD
  5
118
102
{ACAD_REACTORS
330
45
102
}
330
45
100
AcDbXrecord
280
     1
  1
F(断面)を表示
  1
F*
  1
*
  1
*
 70
     0
  1
*
  1
*
  0
XRECORD
  5
119
102
{ACAD_REACTORS
330
45
102
}
330
45
100
AcDbXrecord
280
     1
  1
F1
  1
*
  1
*
  1
*
 70
     0
  1
*
  1
*
  0
XRECORD
  5
11A
102
{ACAD_REACTORS
330
45
102
}
330
45
100
AcDbXrecord
280
     1
  1
face4
  1
*face4*
  1
*
  1
*
 70
     0
  1
*
  1
*
  0
XRECORD
  5
11B
102
{ACAD_REACTORS
330
45
102
}
330
45
100
AcDbXrecord
280
     1
  1
FC_CLADDING
  1
*FC*
  1
*
  1
*
 70
     0
  1
*
  1
*
  0
XRECORD
  5
11C
102
{ACAD_REACTORS
330
45
102
}
330
45
100
AcDbXrecord
280
     1
  1
FENCE
  1
*FENCE*
  1
*
  1
*
 70
     0
  1
*
  1
*
  0
XRECORD
  5
11D
102
{ACAD_REACTORS
330
45
102
}
330
45
100
AcDbXrecord
280
     1
  1
FF
  1
*
  1
*
  1
*
 70
     4
  1
*
  1
*
  0
XRECORD
  5
11E
102
{ACAD_REACTORS
330
45
102
}
330
45
100
AcDbXrecord
280
     1
  1
FH
  1
*FH*
  1
*
  1
*
 70
     0
  1
*
  1
*
  0
XRECORD
  5
11F
102
{ACAD_REACTORS
330
45
102
}
330
45
100
AcDbXrecord
280
     1
  1
FILTER1
  1
*
  1
*
  1
*
 70
     0
  1
*
  1
*
  0
XRECORD
  5
120
102
{ACAD_REACTORS
330
45
102
}
330
45
100
AcDbXrecord
280
     1
  1
fini
  1
*fini*
  1
*
  1
*
 70
     0
  1
*
  1
*
  0
XRECORD
  5
121
102
{ACAD_REACTORS
330
45
102
}
330
45
100
AcDbXrecord
280
     1
  1
finish
  1
n-*
  1
*
  1
*
 70
     0
  1
*
  1
*
  0
XRECORD
  5
122
102
{ACAD_REACTORS
330
45
102
}
330
45
100
AcDbXrecord
280
     1
  1
FIRE
  1
*FIRE*
  1
*
  1
*
 70
     0
  1
*
  1
*
  0
XRECORD
  5
123
102
{ACAD_REACTORS
330
45
102
}
330
45
100
AcDbXrecord
280
     1
  1
fixture
  1
f-*
  1
*
  1
*
 70
     0
  1
*
  1
*
  0
XRECORD
  5
124
102
{ACAD_REACTORS
330
45
102
}
330
45
100
AcDbXrecord
280
     1
  1
fl
  1
*FL*
  1
*
  1
*
 70
     0
  1
*
  1
*
  0
XRECORD
  5
125
102
{ACAD_REACTORS
330
45
102
}
330
45
100
AcDbXrecord
280
     1
  1
Floor
  1
A-Flor*
  1
*
  1
*
 70
     0
  1
*
  1
*
  0
XRECORD
  5
126
102
{ACAD_REACTORS
330
45
102
}
330
45
100
AcDbXrecord
280
     1
  1
FLOOR PLAN
  1
A-FLR-*
  1
*
  1
*
 70
     0
  1
*
  1
*
  0
XRECORD
  5
127
102
{ACAD_REACTORS
330
45
102
}
330
45
100
AcDbXrecord
280
     1
  1
fr
  1
*
  1
*
  1
*
 70
     4
  1
*
  1
*
  0
XRECORD
  5
128
102
{ACAD_REACTORS
330
45
102
}
330
45
100
AcDbXrecord
280
     1
  1
freeze
  1
*
  1
*
  1
*
 70
     4
  1
*
  1
*
  0
XRECORD
  5
129
102
{ACAD_REACTORS
330
45
102
}
330
45
100
AcDbXrecord
280
     1
  1
FRZ
  1
*
  1
*
  1
*
 70
     4
  1
*
  1
*
  0
XRECORD
  5
12A
102
{ACAD_REACTORS
330
45
102
}
330
45
100
AcDbXrecord
280
     1
  1
Fugou
  1
*-Fugou*
  1
*
  1
*
 70
     0
  1
*
  1
*
  0
XRECORD
  5
12B
102
{ACAD_REACTORS
330
45
102
}
330
45
100
AcDbXrecord
280
     1
  1
FUGOU-TATEGU
  1
*FUGOU-TATEGU
  1
*
  1
*
 70
     0
  1
*
  1
*
  0
XRECORD
  5
12C
102
{ACAD_REACTORS
330
45
102
}
330
45
100
AcDbXrecord
280
     1
  1
FUKI
  1
*FUKI
  1
*
  1
*
 70
     0
  1
*
  1
*
  0
XRECORD
  5
12D
102
{ACAD_REACTORS
330
45
102
}
330
45
100
AcDbXrecord
280
     1
  1
FURN
  1
*F-*
  1
*
  1
*
 70
     0
  1
*
  1
*
  0
XRECORD
  5
12E
102
{ACAD_REACTORS
330
45
102
}
330
45
100
AcDbXrecord
280
     1
  1
FURNITURE
  1
*FN*
  1
*
  1
*
 70
     0
  1
*
  1
*
  0
XRECORD
  5
12F
102
{ACAD_REACTORS
330
45
102
}
330
45
100
AcDbXrecord
280
     1
  1
FUSE_00
  1
*
  1
*
  1
*
 70
     0
  1
*
  1
*
  0
XRECORD
  5
130
102
{ACAD_REACTORS
330
45
102
}
330
45
100
AcDbXrecord
280
     1
  1
G
  1
*-G*
  1
*
  1
*
 70
     0
  1
*
  1
*
  0
XRECORD
  5
131
102
{ACAD_REACTORS
330
45
102
}
330
45
100
AcDbXrecord
280
     1
  1
G(開口)を表示
  1
G*
  1
*
  1
*
 70
     0
  1
*
  1
*
  0
XRECORD
  5
132
102
{ACAD_REACTORS
330
45
102
}
330
45
100
AcDbXrecord
280
     1
  1
GAIKOU
  1
*
  1
*
  1
*
 70
     0
  1
*
  1
*
  0
XRECORD
  5
133
102
{ACAD_REACTORS
330
45
102
}
330
45
100
AcDbXrecord
280
     1
  1
gel
  1
*ILLUMI*
  1
*
  1
*
 70
     0
  1
*
  1
*
  0
XRECORD
  5
134
102
{ACAD_REACTORS
330
45
102
}
330
45
100
AcDbXrecord
280
     1
  1
gen
  1
g*,*$*
  1
*
  1
*
 70
     0
  1
*
  1
*
  0
XRECORD
  5
135
102
{ACAD_REACTORS
330
45
102
}
330
45
100
AcDbXrecord
280
     1
  1
gondora
  1
a-gondora*
  1
*
  1
*
 70
     0
  1
*
  1
*
  0
XRECORD
  5
136
102
{ACAD_REACTORS
330
45
102
}
330
45
100
AcDbXrecord
280
     1
  1
green
  1
*
  1
green
  1
*
 70
     0
  1
*
  1
*
  0
XRECORD
  5
137
102
{ACAD_REACTORS
330
45
102
}
330
45
100
AcDbXrecord
280
     1
  1
GRID
  1
G*
  1
*
  1
*
 70
     0
  1
*
  1
*
  0
XRECORD
  5
138
102
{ACAD_REACTORS
330
45
102
}
330
45
100
AcDbXrecord
280
     1
  1
gris
  1
*
  1
*
  1
*
 70
     0
  1
*
  1
*
  0
XRECORD
  5
139
102
{ACAD_REACTORS
330
45
102
}
330
45
100
AcDbXrecord
280
     1
  1
H
  1
00*,01*,02*,03*,05*,06*,1*,2*,3*,4*,5*,6*,8*,D*,
  1
*
  1
*
 70
     0
  1
*
  1
*
  0
XRECORD
  5
13A
102
{ACAD_REACTORS
330
45
102
}
330
45
100
AcDbXrecord
280
     1
  1
H-
  1
H-*
  1
*
  1
*
 70
     0
  1
*
  1
*
  0
XRECORD
  5
13B
102
{ACAD_REACTORS
330
45
102
}
330
45
100
AcDbXrecord
280
     1
  1
H-SIN
  1
*H-SIN
  1
*
  1
*
 70
     0
  1
*
  1
*
  0
XRECORD
  5
13C
102
{ACAD_REACTORS
330
45
102
}
330
45
100
AcDbXrecord
280
     1
  1
H(見掛)を表示
  1
H*
  1
*
  1
*
 70
     0
  1
*
  1
*
  0
XRECORD
  5
13D
102
{ACAD_REACTORS
330
45
102
}
330
45
100
AcDbXrecord
280
     1
  1
HA
  1
*HA*
  1
*
  1
*
 70
     0
  1
*
  1
*
  0
XRECORD
  5
13E
102
{ACAD_REACTORS
330
45
102
}
330
45
100
AcDbXrecord
280
     1
  1
haikin
  1
2-*
  1
*
  1
*
 70
     0
  1
*
  1
*
  0
XRECORD
  5
13F
102
{ACAD_REACTORS
330
45
102
}
330
45
100
AcDbXrecord
280
     1
  1
HAISEN
  1
*1,HAISEN
  1
*
  1
*
 70
     0
  1
*
  1
*
  0
XRECORD
  5
140
102
{ACAD_REACTORS
330
45
102
}
330
45
100
AcDbXrecord
280
     1
  1
HARI
  1
*HARI
  1
*
  1
*
 70
     0
  1
*
  1
*
  0
XRECORD
  5
141
102
{ACAD_REACTORS
330
45
102
}
330
45
100
AcDbXrecord
280
     1
  1
hasira
  1
*hasira*
  1
*
  1
*
 70
     0
  1
*
  1
*
  0
XRECORD
  5
142
102
{ACAD_REACTORS
330
45
102
}
330
45
100
AcDbXrecord
280
     1
  1
HATCH
  1
*HATCH*
  1
*
  1
*
 70
     0
  1
*
  1
*
  0
XRECORD
  5
143
102
{ACAD_REACTORS
330
45
102
}
330
45
100
AcDbXrecord
280
     1
  1
HCP
  1
*HCP*
  1
*
  1
*
 70
     0
  1
*
  1
*
  0
XRECORD
  5
144
102
{ACAD_REACTORS
330
45
102
}
330
45
100
AcDbXrecord
280
     1
  1
HEISHO
  1
4MAJ
  1
*
  1
*
 70
     0
  1
*
  1
*
  0
XRECORD
  5
145
102
{ACAD_REACTORS
330
45
102
}
330
45
100
AcDbXrecord
280
     1
  1
HEISHO2
  1
4MAJ,3CWD,3TAT
  1
*
  1
*
 70
     0
  1
*
  1
*
  0
XRECORD
  5
146
102
{ACAD_REACTORS
330
45
102
}
330
45
100
AcDbXrecord
280
     1
  1
HIDDEN
  1
*
  1
*
  1
HIDDEN
 70
     0
  1
*
  1
*
  0
XRECORD
  5
147
102
{ACAD_REACTORS
330
45
102
}
330
45
100
AcDbXrecord
280
     1
  1
HOJO
  1
*HOJO
  1
*
  1
*
 70
     0
  1
*
  1
*
  0
XRECORD
  5
148
102
{ACAD_REACTORS
330
45
102
}
330
45
100
AcDbXrecord
280
     1
  1
hollywood
  1
*
  1
*
  1
*
 70
    12
  1
*
  1
*
  0
XRECORD
  5
149
102
{ACAD_REACTORS
330
45
102
}
330
45
100
AcDbXrecord
280
     1
  1
HOTEL
  1
*HOT*
  1
*
  1
*
 70
     0
  1
*
  1
*
  0
XRECORD
  5
14A
102
{ACAD_REACTORS
330
45
102
}
330
45
100
AcDbXrecord
280
     1
  1
huse
  1
0,defpoints
  1
*
  1
*
 70
     0
  1
*
  1
*
  0
XRECORD
  5
14B
102
{ACAD_REACTORS
330
45
102
}
330
45
100
AcDbXrecord
280
     1
  1
HYOKI
  1
*HYOKI
  1
*
  1
*
 70
     0
  1
*
  1
*
  0
XRECORD
  5
14C
102
{ACAD_REACTORS
330
45
102
}
330
45
100
AcDbXrecord
280
     1
  1
HYOUKI
  1
*
  1
*
  1
*
 70
     0
  1
*
  1
*
  0
XRECORD
  5
14D
102
{ACAD_REACTORS
330
45
102
}
330
45
100
AcDbXrecord
280
     1
  1
i
  1
*
  1
*
  1
*
 70
     0
  1
*
  1
*
  0
XRECORD
  5
14E
102
{ACAD_REACTORS
330
45
102
}
330
45
100
AcDbXrecord
280
     1
  1
I(二次部材系))を表示
  1
I*
  1
*
  1
*
 70
     0
  1
*
  1
*
  0
XRECORD
  5
14F
102
{ACAD_REACTORS
330
45
102
}
330
45
100
AcDbXrecord
280
     1
  1
I2
  1
*I2CL*
  1
*
  1
*
 70
     0
  1
*
  1
*
  0
XRECORD
  5
150
102
{ACAD_REACTORS
330
45
102
}
330
45
100
AcDbXrecord
280
     1
  1
i2cl
  1
*i2c?*
  1
*
  1
*
 70
     0
  1
*
  1
*
  0
XRECORD
  5
151
102
{ACAD_REACTORS
330
45
102
}
330
45
100
AcDbXrecord
280
     1
  1
i5
  1
*i5*
  1
*
  1
*
 70
     0
  1
*
  1
*
  0
XRECORD
  5
152
102
{ACAD_REACTORS
330
45
102
}
330
45
100
AcDbXrecord
280
     1
  1
i9
  1
*i9*
  1
*
  1
*
 70
     0
  1
*
  1
*
  0
XRECORD
  5
153
102
{ACAD_REACTORS
330
45
102
}
330
45
100
AcDbXrecord
280
     1
  1
in
  1
*
  1
*
  1
*
 70
     4
  1
*
  1
*
  0
XRECORD
  5
154
102
{ACAD_REACTORS
330
45
102
}
330
45
100
AcDbXrecord
280
     1
  1
INSERT図
  1
*
  1
*
  1
*
 70
    12
  1
*
  1
*
  0
XRECORD
  5
155
102
{ACAD_REACTORS
330
45
102
}
330
45
100
AcDbXrecord
280
     1
  1
ISSUE
  1
*-ISSUE1-*
  1
*
  1
*
 70
     0
  1
*
  1
*
  0
XRECORD
  5
156
102
{ACAD_REACTORS
330
45
102
}
330
45
100
AcDbXrecord
280
     1
  1
J
  1
*J*
  1
*
  1
*
 70
     0
  1
*
  1
*
  0
XRECORD
  5
157
102
{ACAD_REACTORS
330
45
102
}
330
45
100
AcDbXrecord
280
     1
  1
K
  1
K*
  1
*
  1
*
 70
     0
  1
*
  1
*
  0
XRECORD
  5
158
102
{ACAD_REACTORS
330
45
102
}
330
45
100
AcDbXrecord
280
     1
  1
KABE
  1
*KABE
  1
*
  1
*
 70
     0
  1
*
  1
*
  0
XRECORD
  5
159
102
{ACAD_REACTORS
330
45
102
}
330
45
100
AcDbXrecord
280
     1
  1
KABESHIN
  1
*A12
  1
*
  1
*
 70
     0
  1
*
  1
*
  0
XRECORD
  5
15A
102
{ACAD_REACTORS
330
45
102
}
330
45
100
AcDbXrecord
280
     1
  1
KAGU
  1
*KAGU*
  1
*
  1
*
 70
     0
  1
*
  1
*
  0
XRECORD
  5
15B
102
{ACAD_REACTORS
330
45
102
}
330
45
100
AcDbXrecord
280
     1
  1
key
  1
keyplan
  1
*
  1
*
 70
     0
  1
*
  1
*
  0
XRECORD
  5
15C
102
{ACAD_REACTORS
330
45
102
}
330
45
100
AcDbXrecord
280
     1
  1
KI
  1
KI*
  1
*
  1
*
 70
     0
  1
*
  1
*
  0
XRECORD
  5
15D
102
{ACAD_REACTORS
330
45
102
}
330
45
100
AcDbXrecord
280
     1
  1
KIGO
  1
*KIGO*
  1
*
  1
*
 70
     0
  1
*
  1
*
  0
XRECORD
  5
15E
102
{ACAD_REACTORS
330
45
102
}
330
45
100
AcDbXrecord
280
     1
  1
KIJUN
  1
*KIJUN
  1
*
  1
*
 70
     0
  1
*
  1
*
  0
XRECORD
  5
15F
102
{ACAD_REACTORS
330
45
102
}
330
45
100
AcDbXrecord
280
     1
  1
kiso
  1
f1*
  1
*
  1
*
 70
     0
  1
*
  1
*
  0
XRECORD
  5
160
102
{ACAD_REACTORS
330
45
102
}
330
45
100
AcDbXrecord
280
     1
  1
KSIN
  1
*2KSIN
  1
21
  1
*
 70
     0
  1
*
  1
*
  0
XRECORD
  5
161
102
{ACAD_REACTORS
330
45
102
}
330
45
100
AcDbXrecord
280
     1
  1
kui
  1
*
  1
*
  1
*
 70
     4
  1
*
  1
*
  0
XRECORD
  5
162
102
{ACAD_REACTORS
330
45
102
}
330
45
100
AcDbXrecord
280
     1
  1
KUTAI
  1
*
  1
*
  1
*
 70
     0
  1
*
  1
*
  0
XRECORD
  5
163
102
{ACAD_REACTORS
330
45
102
}
330
45
100
AcDbXrecord
280
     1
  1
L
  1
L*
  1
*
  1
*
 70
     0
  1
*
  1
*
  0
XRECORD
  5
164
102
{ACAD_REACTORS
330
45
102
}
330
45
100
AcDbXrecord
280
     1
  1
LEGEND
  1
*-C-*
  1
*
  1
*
 70
     0
  1
*
  1
*
  0
XRECORD
  5
165
102
{ACAD_REACTORS
330
45
102
}
330
45
100
AcDbXrecord
280
     1
  1
LGS
  1
*LGS*
  1
*
  1
*
 70
     0
  1
*
  1
*
  0
XRECORD
  5
166
102
{ACAD_REACTORS
330
45
102
}
330
45
100
AcDbXrecord
280
     1
  1
light
  1
*light*
  1
*
  1
*
 70
     0
  1
*
  1
*
  0
XRECORD
  5
167
102
{ACAD_REACTORS
330
45
102
}
330
45
100
AcDbXrecord
280
     1
  1
LIST
  1
*LIST*
  1
*
  1
*
 70
     0
  1
*
  1
*
  0
XRECORD
  5
168
102
{ACAD_REACTORS
330
45
102
}
330
45
100
AcDbXrecord
280
     1
  1
lixo
  1
*
  1
*
  1
*
 70
  3072
  1
*
  1
*
  0
XRECORD
  5
169
102
{ACAD_REACTORS
330
45
102
}
330
45
100
AcDbXrecord
280
     1
  1
LOCK
  1
*
  1
*
  1
*
 70
   256
  1
*
  1
*
  0
XRECORD
  5
16A
102
{ACAD_REACTORS
330
45
102
}
330
45
100
AcDbXrecord
280
     1
  1
LTA
  1
*
  1
*
  1
*
 70
   768
  1
*
  1
*
  0
XRECORD
  5
16B
102
{ACAD_REACTORS
330
45
102
}
330
45
100
AcDbXrecord
280
     1
  1
Ｌ建具
  1
L*tategu*
  1
*
  1
*
 70
     0
  1
*
  1
*
  0
XRECORD
  5
16C
102
{ACAD_REACTORS
330
45
102
}
330
45
100
AcDbXrecord
280
     1
  1
M
  1
M*
  1
*
  1
*
 70
     0
  1
*
  1
*
  0
XRECORD
  5
16D
102
{ACAD_REACTORS
330
45
102
}
330
45
100
AcDbXrecord
280
     1
  1
MA
  1
MA*
  1
*
  1
*
 70
     0
  1
*
  1
*
  0
XRECORD
  5
16E
102
{ACAD_REACTORS
330
45
102
}
330
45
100
AcDbXrecord
280
     1
  1
MACONNERIE
  1
*
  1
*
  1
*
 70
     0
  1
*
  1
*
  0
XRECORD
  5
16F
102
{ACAD_REACTORS
330
45
102
}
330
45
100
AcDbXrecord
280
     1
  1
magenta
  1
*
  1
magenta
  1
*
 70
     0
  1
*
  1
*
  0
XRECORD
  5
170
102
{ACAD_REACTORS
330
45
102
}
330
45
100
AcDbXrecord
280
     1
  1
magenta-bleu
  1
*
  1
magenta,bleu
  1
*
 70
     0
  1
*
  1
*
  0
XRECORD
  5
171
102
{ACAD_REACTORS
330
45
102
}
330
45
100
AcDbXrecord
280
     1
  1
maji
  1
*A12
  1
*
  1
*
 70
     0
  1
*
  1
*
  0
XRECORD
  5
172
102
{ACAD_REACTORS
330
45
102
}
330
45
100
AcDbXrecord
280
     1
  1
MAJIKIRI
  1
*MAJIKIRI
  1
*
  1
*
 70
     0
  1
*
  1
*
  0
XRECORD
  5
173
102
{ACAD_REACTORS
330
45
102
}
330
45
100
AcDbXrecord
280
     1
  1
marco
  1
marco*
  1
*
  1
*
 70
     0
  1
*
  1
*
  0
XRECORD
  5
174
102
{ACAD_REACTORS
330
45
102
}
330
45
100
AcDbXrecord
280
     1
  1
MB
  1
*MB
  1
*
  1
*
 70
     0
  1
*
  1
*
  0
XRECORD
  5
175
102
{ACAD_REACTORS
330
45
102
}
330
45
100
AcDbXrecord
280
     1
  1
meji
  1
*MEJI
  1
*
  1
*
 70
     0
  1
*
  1
*
  0
XRECORD
  5
176
102
{ACAD_REACTORS
330
45
102
}
330
45
100
AcDbXrecord
280
     1
  1
merceologico
  1
mq*
  1
*
  1
*
 70
     0
  1
*
  1
*
  0
XRECORD
  5
177
102
{ACAD_REACTORS
330
45
102
}
330
45
100
AcDbXrecord
280
     1
  1
MILL
  1
*MILL*
  1
*
  1
*
 70
     0
  1
*
  1
*
  0
XRECORD
  5
178
102
{ACAD_REACTORS
330
45
102
}
330
45
100
AcDbXrecord
280
     1
  1
MILLWORK
  1
*mILL*
  1
*
  1
*
 70
     0
  1
*
  1
*
  0
XRECORD
  5
179
102
{ACAD_REACTORS
330
45
102
}
330
45
100
AcDbXrecord
280
     1
  1
miwa
  1
*
  1
*
  1
*
 70
     0
  1
*
  1
*
  0
XRECORD
  5
17A
102
{ACAD_REACTORS
330
45
102
}
330
45
100
AcDbXrecord
280
     1
  1
MOJI
  1
*MOJI
  1
*
  1
*
 70
     0
  1
*
  1
*
  0
XRECORD
  5
17B
102
{ACAD_REACTORS
330
45
102
}
330
45
100
AcDbXrecord
280
     1
  1
MOJI100
  1
*5MOJI100
  1
3
  1
*
 70
     0
  1
*
  1
*
  0
XRECORD
  5
17C
102
{ACAD_REACTORS
330
45
102
}
330
45
100
AcDbXrecord
280
     1
  1
N
  1
*N*
  1
*
  1
*
 70
     0
  1
*
  1
*
  0
XRECORD
  5
17D
102
{ACAD_REACTORS
330
45
102
}
330
45
100
AcDbXrecord
280
     1
  1
N-
  1
N-*
  1
*
  1
*
 70
     0
  1
*
  1
*
  0
XRECORD
  5
17E
102
{ACAD_REACTORS
330
45
102
}
330
45
100
AcDbXrecord
280
     1
  1
NAM
  1
*NAM*
  1
*
  1
*
 70
     0
  1
*
  1
*
  0
XRECORD
  5
17F
102
{ACAD_REACTORS
330
45
102
}
330
45
100
AcDbXrecord
280
     1
  1
NEW
  1
*NEW*
  1
*
  1
*
 70
     0
  1
*
  1
*
  0
XRECORD
  5
180
102
{ACAD_REACTORS
330
45
102
}
330
45
100
AcDbXrecord
280
     1
  1
NHK
  1
N*
  1
*
  1
*
 70
     0
  1
*
  1
*
  0
XRECORD
  5
181
102
{ACAD_REACTORS
330
45
102
}
330
45
100
AcDbXrecord
280
     1
  1
niimi
  1
*
  1
*
  1
*
 70
     0
  1
*
  1
*
  0
XRECORD
  5
182
102
{ACAD_REACTORS
330
45
102
}
330
45
100
AcDbXrecord
280
     1
  1
no xref
  1
~*|*
  1
*
  1
*
 70
     0
  1
*
  1
*
  0
XRECORD
  5
183
102
{ACAD_REACTORS
330
45
102
}
330
45
100
AcDbXrecord
280
     1
  1
note
  1
tca-6f|*note*
  1
*
  1
*
 70
     0
  1
*
  1
*
  0
XRECORD
  5
184
102
{ACAD_REACTORS
330
45
102
}
330
45
100
AcDbXrecord
280
     1
  1
NUM
  1
*NUM*
  1
*
  1
*
 70
     0
  1
*
  1
*
  0
XRECORD
  5
185
102
{ACAD_REACTORS
330
45
102
}
330
45
100
AcDbXrecord
280
     1
  1
NUMB
  1
*NUM*
  1
*
  1
*
 70
     0
  1
*
  1
*
  0
XRECORD
  5
186
102
{ACAD_REACTORS
330
45
102
}
330
45
100
AcDbXrecord
280
     1
  1
O
  1
*O*
  1
*
  1
*
 70
     0
  1
*
  1
*
  0
XRECORD
  5
187
102
{ACAD_REACTORS
330
45
102
}
330
45
100
AcDbXrecord
280
     1
  1
OF
  1
*
  1
*
  1
*
 70
     3
  1
*
  1
*
  0
XRECORD
  5
188
102
{ACAD_REACTORS
330
45
102
}
330
45
100
AcDbXrecord
280
     1
  1
OFF
  1
*
  1
*
  1
*
 70
     3
  1
*
  1
*
  0
XRECORD
  5
189
102
{ACAD_REACTORS
330
45
102
}
330
45
100
AcDbXrecord
280
     1
  1
on
  1
*
  1
*
  1
*
 70
    13
  1
*
  1
*
  0
XRECORD
  5
18A
102
{ACAD_REACTORS
330
45
102
}
330
45
100
AcDbXrecord
280
     1
  1
option 1
  1
1*
  1
*
  1
*
 70
     0
  1
*
  1
*
  0
XRECORD
  5
18B
102
{ACAD_REACTORS
330
45
102
}
330
45
100
AcDbXrecord
280
     1
  1
option 2
  1
2*
  1
*
  1
*
 70
     0
  1
*
  1
*
  0
XRECORD
  5
18C
102
{ACAD_REACTORS
330
45
102
}
330
45
100
AcDbXrecord
280
     1
  1
OUTLINE
  1
T_*|OUTLINE
  1
*
  1
*
 70
     0
  1
*
  1
*
  0
XRECORD
  5
18D
102
{ACAD_REACTORS
330
45
102
}
330
45
100
AcDbXrecord
280
     1
  1
P
  1
*-P*
  1
*
  1
*
 70
     0
  1
*
  1
*
  0
XRECORD
  5
18E
102
{ACAD_REACTORS
330
45
102
}
330
45
100
AcDbXrecord
280
     1
  1
pa
  1
*pa*
  1
*
  1
*
 70
     0
  1
*
  1
*
  0
XRECORD
  5
18F
102
{ACAD_REACTORS
330
45
102
}
330
45
100
AcDbXrecord
280
     1
  1
PALFOND
  1
*
  1
*
  1
*
 70
    13
  1
*
  1
*
  0
XRECORD
  5
190
102
{ACAD_REACTORS
330
45
102
}
330
45
100
AcDbXrecord
280
     1
  1
PAT
  1
*PAT*
  1
*
  1
*
 70
     0
  1
*
  1
*
  0
XRECORD
  5
191
102
{ACAD_REACTORS
330
45
102
}
330
45
100
AcDbXrecord
280
     1
  1
PC
  1
PC*
  1
*
  1
*
 70
     0
  1
*
  1
*
  0
XRECORD
  5
192
102
{ACAD_REACTORS
330
45
102
}
330
45
100
AcDbXrecord
280
     1
  1
PISO
  1
*PISO
  1
*
  1
*
 70
     0
  1
*
  1
*
  0
XRECORD
  5
193
102
{ACAD_REACTORS
330
45
102
}
330
45
100
AcDbXrecord
280
     1
  1
PLAN
  1
A*,B*,SITE*
  1
*
  1
*
 70
     0
  1
*
  1
*
  0
XRECORD
  5
194
102
{ACAD_REACTORS
330
45
102
}
330
45
100
AcDbXrecord
280
     1
  1
PLMB
  1
*PLMB*
  1
*
  1
*
 70
     0
  1
*
  1
*
  0
XRECORD
  5
195
102
{ACAD_REACTORS
330
45
102
}
330
45
100
AcDbXrecord
280
     1
  1
plot
  1
*
  1
*
  1
*
 70
     1
  1
*
  1
*
  0
XRECORD
  5
196
102
{ACAD_REACTORS
330
45
102
}
330
45
100
AcDbXrecord
280
     1
  1
PLUMB
  1
*PLUMB*
  1
*
  1
*
 70
     0
  1
*
  1
*
  0
XRECORD
  5
197
102
{ACAD_REACTORS
330
45
102
}
330
45
100
AcDbXrecord
280
     1
  1
PNL
  1
*PNL*
  1
*
  1
*
 70
     0
  1
*
  1
*
  0
XRECORD
  5
198
102
{ACAD_REACTORS
330
45
102
}
330
45
100
AcDbXrecord
280
     1
  1
power
  1
p-*
  1
*
  1
*
 70
     0
  1
*
  1
*
  0
XRECORD
  5
199
102
{ACAD_REACTORS
330
45
102
}
330
45
100
AcDbXrecord
280
     1
  1
PRT
  1
*PRT*
  1
*
  1
*
 70
     0
  1
*
  1
*
  0
XRECORD
  5
19A
102
{ACAD_REACTORS
330
45
102
}
330
45
100
AcDbXrecord
280
     1
  1
q
  1
*
  1
*
  1
*
 70
     4
  1
*
  1
*
  0
XRECORD
  5
19B
102
{ACAD_REACTORS
330
45
102
}
330
45
100
AcDbXrecord
280
     1
  1
R
  1
R*
  1
*
  1
*
 70
     0
  1
*
  1
*
  0
XRECORD
  5
19C
102
{ACAD_REACTORS
330
45
102
}
330
45
100
AcDbXrecord
280
     1
  1
rack
  1
*rack*
  1
*
  1
*
 70
     0
  1
*
  1
*
  0
XRECORD
  5
19D
102
{ACAD_REACTORS
330
45
102
}
330
45
100
AcDbXrecord
280
     1
  1
RC
  1
*RC
  1
*
  1
*
 70
     0
  1
*
  1
*
  0
XRECORD
  5
19E
102
{ACAD_REACTORS
330
45
102
}
330
45
100
AcDbXrecord
280
     1
  1
RCP
  1
A*,C*
  1
*
  1
*
 70
     0
  1
*
  1
*
  0
XRECORD
  5
19F
102
{ACAD_REACTORS
330
45
102
}
330
45
100
AcDbXrecord
280
     1
  1
rm
  1
*r*
  1
*
  1
*
 70
     0
  1
*
  1
*
  0
XRECORD
  5
1A0
102
{ACAD_REACTORS
330
45
102
}
330
45
100
AcDbXrecord
280
     1
  1
RMTAGS
  1
R*
  1
*
  1
*
 70
     0
  1
*
  1
*
  0
XRECORD
  5
1A1
102
{ACAD_REACTORS
330
45
102
}
330
45
100
AcDbXrecord
280
     1
  1
RNUM
  1
*NUM*
  1
*
  1
*
 70
     0
  1
*
  1
*
  0
XRECORD
  5
1A2
102
{ACAD_REACTORS
330
45
102
}
330
45
100
AcDbXrecord
280
     1
  1
ROOM
  1
*RM*
  1
*
  1
*
 70
     0
  1
*
  1
*
  0
XRECORD
  5
1A3
102
{ACAD_REACTORS
330
45
102
}
330
45
100
AcDbXrecord
280
     1
  1
roomno
  1
*num*
  1
*
  1
*
 70
     0
  1
*
  1
*
  0
XRECORD
  5
1A4
102
{ACAD_REACTORS
330
45
102
}
330
45
100
AcDbXrecord
280
     1
  1
rouge
  1
*
  1
1
  1
*
 70
     1
  1
*
  1
*
  0
XRECORD
  5
1A5
102
{ACAD_REACTORS
330
45
102
}
330
45
100
AcDbXrecord
280
     1
  1
rtkl
  1
*rtkl*
  1
*
  1
*
 70
     0
  1
*
  1
*
  0
XRECORD
  5
1A6
102
{ACAD_REACTORS
330
45
102
}
330
45
100
AcDbXrecord
280
     1
  1
S
  1
0,05*,11*,12*,13*,14*,20*,21*,22*,55*,56*,
  1
*
  1
*
 70
     0
  1
*
  1
*
  0
XRECORD
  5
1A7
102
{ACAD_REACTORS
330
45
102
}
330
45
100
AcDbXrecord
280
     1
  1
saciencewold
  1
*
  1
*
  1
*
 70
     0
  1
*
  1
*
  0
XRECORD
  5
1A8
102
{ACAD_REACTORS
330
45
102
}
330
45
100
AcDbXrecord
280
     1
  1
SETUBI
  1
*SETUBI
  1
*
  1
*
 70
     0
  1
*
  1
*
  0
XRECORD
  5
1A9
102
{ACAD_REACTORS
330
45
102
}
330
45
100
AcDbXrecord
280
     1
  1
SHITU
  1
*SHITUMEI*
  1
*
  1
*
 70
     0
  1
*
  1
*
  0
XRECORD
  5
1AA
102
{ACAD_REACTORS
330
45
102
}
330
45
100
AcDbXrecord
280
     1
  1
SHITUMEI
  1
*SHITUMEI2
  1
*
  1
*
 70
     0
  1
*
  1
*
  0
XRECORD
  5
1AB
102
{ACAD_REACTORS
330
45
102
}
330
45
100
AcDbXrecord
280
     1
  1
SIAG
  1
*3SIAG
  1
*
  1
*
 70
     0
  1
*
  1
*
  0
XRECORD
  5
1AC
102
{ACAD_REACTORS
330
45
102
}
330
45
100
AcDbXrecord
280
     1
  1
SIAG-N
  1
*3SIAG-N
  1
7
  1
*
 70
     0
  1
*
  1
*
  0
XRECORD
  5
1AD
102
{ACAD_REACTORS
330
45
102
}
330
45
100
AcDbXrecord
280
     1
  1
SIAG3
  1
*3SIAG3
  1
3
  1
*
 70
     0
  1
*
  1
*
  0
XRECORD
  5
1AE
102
{ACAD_REACTORS
330
45
102
}
330
45
100
AcDbXrecord
280
     1
  1
sin
  1
*SIN*
  1
*
  1
*
 70
     0
  1
*
  1
*
  0
XRECORD
  5
1AF
102
{ACAD_REACTORS
330
45
102
}
330
45
100
AcDbXrecord
280
     1
  1
Sinm
  1
*-Sinm*
  1
*
  1
*
 70
     0
  1
*
  1
*
  0
XRECORD
  5
1B0
102
{ACAD_REACTORS
330
45
102
}
330
45
100
AcDbXrecord
280
     1
  1
SITA
  1
*3SITA
  1
*
  1
*
 70
     0
  1
*
  1
*
  0
XRECORD
  5
1B1
102
{ACAD_REACTORS
330
45
102
}
330
45
100
AcDbXrecord
280
     1
  1
siyah
  1
*
  1
*
  1
*
 70
     4
  1
*
  1
siyah
  0
XRECORD
  5
1B2
102
{ACAD_REACTORS
330
45
102
}
330
45
100
AcDbXrecord
280
     1
  1
SS
  1
*SS*
  1
*
  1
*
 70
     0
  1
*
  1
*
  0
XRECORD
  5
1B3
102
{ACAD_REACTORS
330
45
102
}
330
45
100
AcDbXrecord
280
     1
  1
ST
  1
*ST*
  1
*
  1
*
 70
     0
  1
*
  1
*
  0
XRECORD
  5
1B4
102
{ACAD_REACTORS
330
45
102
}
330
45
100
AcDbXrecord
280
     1
  1
STA
  1
STA*
  1
*
  1
*
 70
     0
  1
*
  1
*
  0
XRECORD
  5
1B5
102
{ACAD_REACTORS
330
45
102
}
330
45
100
AcDbXrecord
280
     1
  1
stairs
  1
*sta*
  1
*
  1
*
 70
     0
  1
*
  1
*
  0
XRECORD
  5
1B6
102
{ACAD_REACTORS
330
45
102
}
330
45
100
AcDbXrecord
280
     1
  1
SUGA5
  1
*4SUGA5
  1
5
  1
*
 70
     0
  1
*
  1
*
  0
XRECORD
  5
1B7
102
{ACAD_REACTORS
330
45
102
}
330
45
100
AcDbXrecord
280
     1
  1
SUNP
  1
*5SUNP100
  1
1
  1
*
 70
     0
  1
*
  1
*
  0
XRECORD
  5
1B8
102
{ACAD_REACTORS
330
45
102
}
330
45
100
AcDbXrecord
280
     1
  1
SUNP100
  1
*5SUNP100
  1
*
  1
*
 70
     0
  1
*
  1
*
  0
XRECORD
  5
1B9
102
{ACAD_REACTORS
330
45
102
}
330
45
100
AcDbXrecord
280
     1
  1
T
  1
T*
  1
*
  1
*
 70
     0
  1
*
  1
*
  0
XRECORD
  5
1BA
102
{ACAD_REACTORS
330
45
102
}
330
45
100
AcDbXrecord
280
     1
  1
TAKASA
  1
*
  1
2
  1
*
 70
     0
  1
*
  1
*
  0
XRECORD
  5
1BB
102
{ACAD_REACTORS
330
45
102
}
330
45
100
AcDbXrecord
280
     1
  1
TATE161
  1
*4TATE161
  1
161
  1
*
 70
     0
  1
*
  1
*
  0
XRECORD
  5
1BC
102
{ACAD_REACTORS
330
45
102
}
330
45
100
AcDbXrecord
280
     1
  1
TATEGU
  1
*TATEGU
  1
*
  1
*
 70
     0
  1
*
  1
*
  0
XRECORD
  5
1BD
102
{ACAD_REACTORS
330
45
102
}
330
45
100
AcDbXrecord
280
     1
  1
ten
  1
*ten*
  1
*
  1
*
 70
     0
  1
*
  1
*
  0
XRECORD
  5
1BE
102
{ACAD_REACTORS
330
45
102
}
330
45
100
AcDbXrecord
280
     1
  1
TENJYOU
  1
C-*
  1
*
  1
*
 70
     0
  1
*
  1
*
  0
XRECORD
  5
1BF
102
{ACAD_REACTORS
330
45
102
}
330
45
100
AcDbXrecord
280
     1
  1
TENJYOUNAI
  1
CI-*
  1
*
  1
*
 70
     0
  1
*
  1
*
  0
XRECORD
  5
1C0
102
{ACAD_REACTORS
330
45
102
}
330
45
100
AcDbXrecord
280
     1
  1
test
  1
keyplan
  1
*
  1
*
 70
     0
  1
*
  1
*
  0
XRECORD
  5
1C1
102
{ACAD_REACTORS
330
45
102
}
330
45
100
AcDbXrecord
280
     1
  1
text
  1
*text*
  1
*
  1
*
 70
     0
  1
*
  1
*
  0
XRECORD
  5
1C2
102
{ACAD_REACTORS
330
45
102
}
330
45
100
AcDbXrecord
280
     1
  1
thaw
  1
*
  1
*
  1
*
 70
    12
  1
*
  1
*
  0
XRECORD
  5
1C3
102
{ACAD_REACTORS
330
45
102
}
330
45
100
AcDbXrecord
280
     1
  1
TITL
  1
*8TITL
  1
4
  1
*
 70
     0
  1
*
  1
*
  0
XRECORD
  5
1C4
102
{ACAD_REACTORS
330
45
102
}
330
45
100
AcDbXrecord
280
     1
  1
tnjyou
  1
c-*
  1
*
  1
*
 70
     0
  1
*
  1
*
  0
XRECORD
  5
1C5
102
{ACAD_REACTORS
330
45
102
}
330
45
100
AcDbXrecord
280
     1
  1
tori
  1
*A11
  1
*
  1
*
 70
     0
  1
*
  1
*
  0
XRECORD
  5
1C6
102
{ACAD_REACTORS
330
45
102
}
330
45
100
AcDbXrecord
280
     1
  1
TORISHIN
  1
*A11
  1
*
  1
*
 70
     0
  1
*
  1
*
  0
XRECORD
  5
1C7
102
{ACAD_REACTORS
330
45
102
}
330
45
100
AcDbXrecord
280
     1
  1
tr
  1
*tr*
  1
*
  1
*
 70
     0
  1
*
  1
*
  0
XRECORD
  5
1C8
102
{ACAD_REACTORS
330
45
102
}
330
45
100
AcDbXrecord
280
     1
  1
TSIN
  1
*2TSIN
  1
*
  1
*
 70
     0
  1
*
  1
*
  0
XRECORD
  5
1C9
102
{ACAD_REACTORS
330
45
102
}
330
45
100
AcDbXrecord
280
     1
  1
TXT
  1
*TX*
  1
*
  1
*
 70
     0
  1
*
  1
*
  0
XRECORD
  5
1CA
102
{ACAD_REACTORS
330
45
102
}
330
45
100
AcDbXrecord
280
     1
  1
UNFREEZ
  1
*
  1
*
  1
*
 70
    12
  1
*
  1
*
  0
XRECORD
  5
1CB
102
{ACAD_REACTORS
330
45
102
}
330
45
100
AcDbXrecord
280
     1
  1
UNROCK
  1
*
  1
*
  1
*
 70
   768
  1
*
  1
*
  0
XRECORD
  5
1CC
102
{ACAD_REACTORS
330
45
102
}
330
45
100
AcDbXrecord
280
     1
  1
wada
  1
*
  1
*
  1
*
 70
     0
  1
*
  1
*
  0
XRECORD
  5
1CD
102
{ACAD_REACTORS
330
45
102
}
330
45
100
AcDbXrecord
280
     1
  1
waku
  1
waku
  1
*
  1
*
 70
     0
  1
*
  1
*
  0
XRECORD
  5
1CE
102
{ACAD_REACTORS
330
45
102
}
330
45
100
AcDbXrecord
280
     1
  1
X
  1
*$*$*
  1
*
  1
*
 70
     0
  1
*
  1
*
  0
XRECORD
  5
1CF
102
{ACAD_REACTORS
330
45
102
}
330
45
100
AcDbXrecord
280
     1
  1
X(敷地)を表示
  1
X*
  1
*
  1
*
 70
     0
  1
*
  1
*
  0
XRECORD
  5
1D0
102
{ACAD_REACTORS
330
45
102
}
330
45
100
AcDbXrecord
280
     1
  1
xref
  1
ground*
  1
*
  1
*
 70
     0
  1
*
  1
*
  0
XRECORD
  5
1D1
102
{ACAD_REACTORS
330
45
102
}
330
45
100
AcDbXrecord
280
     1
  1
YAJI
  1
*YAJI*
  1
*
  1
*
 70
     0
  1
*
  1
*
  0
XRECORD
  5
1D2
102
{ACAD_REACTORS
330
45
102
}
330
45
100
AcDbXrecord
280
     1
  1
yellow
  1
*
  1
yellow
  1
*
 70
     0
  1
*
  1
*
  0
XRECORD
  5
1D3
102
{ACAD_REACTORS
330
45
102
}
330
45
100
AcDbXrecord
280
     1
  1
YUKA
  1
F-*
  1
*
  1
*
 70
     0
  1
*
  1
*
  0
XRECORD
  5
1D4
102
{ACAD_REACTORS
330
45
102
}
330
45
100
AcDbXrecord
280
     1
  1
yその他
  1
y*
  1
*
  1
*
 70
     0
  1
*
  1
*
  0
XRECORD
  5
1D5
102
{ACAD_REACTORS
330
45
102
}
330
45
100
AcDbXrecord
280
     1
  1
Z
  1
Z*
  1
*
  1
*
 70
     0
  1
*
  1
*
  0
XRECORD
  5
1D6
102
{ACAD_REACTORS
330
45
102
}
330
45
100
AcDbXrecord
280
     1
  1
ZATU
  1
*ZATU
  1
*
  1
*
 70
     0
  1
*
  1
*
  0
XRECORD
  5
1D7
102
{ACAD_REACTORS
330
45
102
}
330
45
100
AcDbXrecord
280
     1
  1
z図枠
  1
z*
  1
*
  1
*
 70
     0
  1
*
  1
*
  0
XRECORD
  5
1D8
102
{ACAD_REACTORS
330
45
102
}
330
45
100
AcDbXrecord
280
     1
  1
к
  1
к-*
  1
*
  1
*
 70
     0
  1
*
  1
*
  0
XRECORD
  5
1D9
102
{ACAD_REACTORS
330
45
102
}
330
45
100
AcDbXrecord
280
     1
  1
перегородки
  1
*перегород*
  1
*
  1
*
 70
     0
  1
*
  1
*
  0
XRECORD
  5
1DA
102
{ACAD_REACTORS
330
45
102
}
330
45
100
AcDbXrecord
280
     1
  1
イベント給水
  1
*い*
  1
*
  1
*
 70
     0
  1
*
  1
*
  0
XRECORD
  5
1DB
102
{ACAD_REACTORS
330
45
102
}
330
45
100
AcDbXrecord
280
     1
  1
ガラス
  1
*HMOJI
  1
*
  1
*
 70
     0
  1
*
  1
*
  0
XRECORD
  5
1DC
102
{ACAD_REACTORS
330
45
102
}
330
45
100
AcDbXrecord
280
     1
  1
キ-プラン
  1
*HMOJI,*HOJO2,*HOJO4,*SINSEI
  1
*
  1
*
 70
     0
  1
*
  1
*
  0
XRECORD
  5
1DD
102
{ACAD_REACTORS
330
45
102
}
330
45
100
AcDbXrecord
280
     1
  1
キープラン
  1
キープラン*
  1
*
  1
*
 70
     0
  1
*
  1
*
  0
XRECORD
  5
1DE
102
{ACAD_REACTORS
330
45
102
}
330
45
100
AcDbXrecord
280
     1
  1
さーくる
  1
*
  1
*
  1
*
 70
     0
  1
*
  1
*
  0
XRECORD
  5
1DF
102
{ACAD_REACTORS
330
45
102
}
330
45
100
AcDbXrecord
280
     1
  1
シェルター
  1
シェルター*
  1
*
  1
*
 70
     0
  1
*
  1
*
  0
XRECORD
  5
1E0
102
{ACAD_REACTORS
330
45
102
}
330
45
100
AcDbXrecord
280
     1
  1
すべてに反映
  1
*す*
  1
*
  1
*
 70
     0
  1
*
  1
*
  0
XRECORD
  5
1E1
102
{ACAD_REACTORS
330
45
102
}
330
45
100
AcDbXrecord
280
     1
  1
スロープ
  1
SL*
  1
*
  1
*
 70
     0
  1
*
  1
*
  0
XRECORD
  5
1E2
102
{ACAD_REACTORS
330
45
102
}
330
45
100
AcDbXrecord
280
     1
  1
タイル割付平面図
  1
タイル*
  1
*
  1
*
 70
     0
  1
*
  1
*
  0
XRECORD
  5
1E3
102
{ACAD_REACTORS
330
45
102
}
330
45
100
AcDbXrecord
280
     1
  1
ﾃｷｽﾄのみ表示
  1
*NZ5-TEXT
  1
*
  1
*
 70
     0
  1
*
  1
*
  0
XRECORD
  5
1E4
102
{ACAD_REACTORS
330
45
102
}
330
45
100
AcDbXrecord
280
     1
  1
ハッチング
  1
*ハッチング
  1
*
  1
*
 70
     0
  1
*
  1
*
  0
XRECORD
  5
1E5
102
{ACAD_REACTORS
330
45
102
}
330
45
100
AcDbXrecord
280
     1
  1
フリーズ
  1
*
  1
*
  1
*
 70
     4
  1
*
  1
*
  0
XRECORD
  5
1E6
102
{ACAD_REACTORS
330
45
102
}
330
45
100
AcDbXrecord
280
     1
  1
フリーズof
  1
*
  1
*
  1
*
 70
    12
  1
*
  1
*
  0
XRECORD
  5
1E7
102
{ACAD_REACTORS
330
45
102
}
330
45
100
AcDbXrecord
280
     1
  1
ﾌﾘｰｽﾞ画層非表示
  1
*
  1
*
  1
*
 70
    12
  1
*
  1
*
  0
XRECORD
  5
1E8
102
{ACAD_REACTORS
330
45
102
}
330
45
100
AcDbXrecord
280
     1
  1
ﾌﾘｰｽﾞ画面非表示
  1
*
  1
*
  1
*
 70
    12
  1
*
  1
*
  0
XRECORD
  5
1E9
102
{ACAD_REACTORS
330
45
102
}
330
45
100
AcDbXrecord
280
     1
  1
ﾌﾘｰｽﾞ解除
  1
*
  1
*
  1
*
 70
    12
  1
*
  1
*
  0
XRECORD
  5
1EA
102
{ACAD_REACTORS
330
45
102
}
330
45
100
AcDbXrecord
280
     1
  1
フリーズ解除
  1
*
  1
*
  1
*
 70
    12
  1
*
  1
*
  0
XRECORD
  5
1EB
102
{ACAD_REACTORS
330
45
102
}
330
45
100
AcDbXrecord
280
     1
  1
ﾌﾟﾚｾﾞﾝ枠
  1
*|ﾌﾟﾚｾﾞﾝ枠
  1
*
  1
*
 70
     0
  1
*
  1
*
  0
XRECORD
  5
1EC
102
{ACAD_REACTORS
330
45
102
}
330
45
100
AcDbXrecord
280
     1
  1
マーク
  1
*マーク
  1
*
  1
*
 70
     0
  1
*
  1
*
  0
XRECORD
  5
1ED
102
{ACAD_REACTORS
330
45
102
}
330
45
100
AcDbXrecord
280
     1
  1
ﾒｲﾝﾌﾟﾗｻﾞ
  1
*め*
  1
*
  1
*
 70
     0
  1
*
  1
*
  0
XRECORD
  5
1EE
102
{ACAD_REACTORS
330
45
102
}
330
45
100
AcDbXrecord
280
     1
  1
レベル
  1
*た*
  1
*
  1
*
 70
     0
  1
*
  1
*
  0
XRECORD
  5
1EF
102
{ACAD_REACTORS
330
45
102
}
330
45
100
AcDbXrecord
280
     1
  1
ロック
  1
*
  1
*
  1
*
 70
   256
  1
*
  1
*
  0
XRECORD
  5
1F0
102
{ACAD_REACTORS
330
45
102
}
330
45
100
AcDbXrecord
280
     1
  1
一括非表示
  1
*
  1
*
  1
*
 70
     3
  1
*
  1
*
  0
XRECORD
  5
1F1
102
{ACAD_REACTORS
330
45
102
}
330
45
100
AcDbXrecord
280
     1
  1
一般図
  1
hatch
  1
*
  1
*
 70
     7
  1
*
  1
*
  0
XRECORD
  5
1F2
102
{ACAD_REACTORS
330
45
102
}
330
45
100
AcDbXrecord
280
     1
  1
印刷
  1
*
  1
*
  1
*
 70
    13
  1
*
  1
*
  0
XRECORD
  5
1F3
102
{ACAD_REACTORS
330
45
102
}
330
45
100
AcDbXrecord
280
     1
  1
荏原機器
  1
KIKI*
  1
*
  1
*
 70
     0
  1
*
  1
*
  0
XRECORD
  5
1F4
102
{ACAD_REACTORS
330
45
102
}
330
45
100
AcDbXrecord
280
     1
  1
荏原機器基礎
  1
a3*,KIKI*,text*,stage,矢視記号
  1
*
  1
*
 70
     0
  1
*
  1
*
  0
XRECORD
  5
1F5
102
{ACAD_REACTORS
330
45
102
}
330
45
100
AcDbXrecord
280
     1
  1
衛生設備図
  1
001*,002*,004*,005*,007*,010*,039*,040*,041*,042*,043*
  1
*
  1
*
 70
     0
  1
*
  1
*
  0
XRECORD
  5
1F6
102
{ACAD_REACTORS
330
45
102
}
330
45
100
AcDbXrecord
280
     1
  1
黄色
  1
*
  1
YELLOW
  1
*
 70
     0
  1
*
  1
*
  0
XRECORD
  5
1F7
102
{ACAD_REACTORS
330
45
102
}
330
45
100
AcDbXrecord
280
     1
  1
下階
  1
下階*
  1
*
  1
*
 70
     0
  1
*
  1
*
  0
XRECORD
  5
1F8
102
{ACAD_REACTORS
330
45
102
}
330
45
100
AcDbXrecord
280
     1
  1
下地
  1
*-下
  1
*
  1
*
 70
     0
  1
*
  1
*
  0
XRECORD
  5
1F9
102
{ACAD_REACTORS
330
45
102
}
330
45
100
AcDbXrecord
280
     1
  1
外構
  1
外構*
  1
*
  1
*
 70
     0
  1
*
  1
*
  0
XRECORD
  5
1FA
102
{ACAD_REACTORS
330
45
102
}
330
45
100
AcDbXrecord
280
     1
  1
外部参照－建築
  1
A*
  1
9
  1
*
 70
     0
  1
*
  1
*
  0
XRECORD
  5
1FB
102
{ACAD_REACTORS
330
45
102
}
330
45
100
AcDbXrecord
280
     1
  1
外部参照除く
  1
A*
  1
*
  1
*
 70
     0
  1
*
  1
*
  0
XRECORD
  5
1FC
102
{ACAD_REACTORS
330
45
102
}
330
45
100
AcDbXrecord
280
     1
  1
割り付け平面図
  1
*わ*
  1
*
  1
*
 70
     0
  1
*
  1
*
  0
XRECORD
  5
1FD
102
{ACAD_REACTORS
330
45
102
}
330
45
100
AcDbXrecord
280
     1
  1
割付平面図
  1
*わ*
  1
*
  1
*
 70
     0
  1
*
  1
*
  0
XRECORD
  5
1FE
102
{ACAD_REACTORS
330
45
102
}
330
45
100
AcDbXrecord
280
     1
  1
潅水平面
  1
*か*
  1
*
  1
*
 70
     0
  1
*
  1
*
  0
XRECORD
  5
1FF
102
{ACAD_REACTORS
330
45
102
}
330
45
100
AcDbXrecord
280
     1
  1
基
  1
*_基
  1
*
  1
*
 70
     0
  1
*
  1
*
  0
XRECORD
  5
200
102
{ACAD_REACTORS
330
45
102
}
330
45
100
AcDbXrecord
280
     1
  1
基準
  1
基*
  1
*
  1
*
 70
     0
  1
*
  1
*
  0
XRECORD
  5
201
102
{ACAD_REACTORS
330
45
102
}
330
45
100
AcDbXrecord
280
     1
  1
基準階
  1
*基準*
  1
*
  1
*
 70
     0
  1
*
  1
*
  0
XRECORD
  5
202
102
{ACAD_REACTORS
330
45
102
}
330
45
100
AcDbXrecord
280
     1
  1
基礎OFF
  1
+*
  1
*
  1
*
 70
     0
  1
*
  1
*
  0
XRECORD
  5
203
102
{ACAD_REACTORS
330
45
102
}
330
45
100
AcDbXrecord
280
     1
  1
基礎伏
  1
*
  1
*
  1
*
 70
     0
  1
*
  1
*
  0
XRECORD
  5
204
102
{ACAD_REACTORS
330
45
102
}
330
45
100
AcDbXrecord
280
     1
  1
基礎伏図
  1
SIZE,HOJO,ZATU,HATCH,GL-HARI,GL-HASIRA,KISO,KUI,MOJI-K1,GL-FUGO,SUNPO-K1,SUNPO,SUNPO2,SUNPO1,KIJUN3,KIJUN,SIZE
  1
*
  1
*
 70
     0
  1
*
  1
*
  0
XRECORD
  5
205
102
{ACAD_REACTORS
330
45
102
}
330
45
100
AcDbXrecord
280
     1
  1
基盤改良平面図
  1
*き*
  1
*
  1
*
 70
     0
  1
*
  1
*
  0
XRECORD
  5
206
102
{ACAD_REACTORS
330
45
102
}
330
45
100
AcDbXrecord
280
     1
  1
既存杭
  1
既存杭*
  1
*
  1
*
 70
     0
  1
*
  1
*
  0
XRECORD
  5
207
102
{ACAD_REACTORS
330
45
102
}
330
45
100
AcDbXrecord
280
     1
  1
機器
  1
KIKI*
  1
*
  1
*
 70
     0
  1
*
  1
*
  0
XRECORD
  5
208
102
{ACAD_REACTORS
330
45
102
}
330
45
100
AcDbXrecord
280
     1
  1
機器基礎
  1
a3*,KIKI*,text*,stage,矢視記号
  1
*
  1
*
 70
     0
  1
*
  1
*
  0
XRECORD
  5
209
102
{ACAD_REACTORS
330
45
102
}
330
45
100
AcDbXrecord
280
     1
  1
記号
  1
*記号
  1
*
  1
*
 70
     0
  1
*
  1
*
  0
XRECORD
  5
20A
102
{ACAD_REACTORS
330
45
102
}
330
45
100
AcDbXrecord
280
     1
  1
給水設備平面図
  1
*み*
  1
*
  1
*
 70
     0
  1
*
  1
*
  0
XRECORD
  5
20B
102
{ACAD_REACTORS
330
45
102
}
330
45
100
AcDbXrecord
280
     1
  1
給水平面
  1
*き*
  1
*
  1
*
 70
     0
  1
*
  1
*
  0
XRECORD
  5
20C
102
{ACAD_REACTORS
330
45
102
}
330
45
100
AcDbXrecord
280
     1
  1
区画
  1
区画*
  1
*
  1
*
 70
     0
  1
*
  1
*
  0
XRECORD
  5
20D
102
{ACAD_REACTORS
330
45
102
}
330
45
100
AcDbXrecord
280
     1
  1
躯体
  1
*A21*
  1
*
  1
*
 70
     0
  1
*
  1
*
  0
XRECORD
  5
20E
102
{ACAD_REACTORS
330
45
102
}
330
45
100
AcDbXrecord
280
     1
  1
躯体図
  1
D*
  1
*
  1
*
 70
     0
  1
*
  1
*
  0
XRECORD
  5
20F
102
{ACAD_REACTORS
330
45
102
}
330
45
100
AcDbXrecord
280
     1
  1
空調jv
  1
00i*
  1
*
  1
*
 70
     0
  1
*
  1
*
  0
XRECORD
  5
210
102
{ACAD_REACTORS
330
45
102
}
330
45
100
AcDbXrecord
280
     1
  1
空調設備図
  1
001*,002*,004*,005*,007*,010*,033*,034*,035*,036*,037*,038*
  1
*
  1
*
 70
     0
  1
*
  1
*
  0
XRECORD
  5
211
102
{ACAD_REACTORS
330
45
102
}
330
45
100
AcDbXrecord
280
     1
  1
郡川
  1
kijun,kabe,sunpo
  1
*
  1
*
 70
     3
  1
*
  1
*
  0
XRECORD
  5
212
102
{ACAD_REACTORS
330
45
102
}
330
45
100
AcDbXrecord
280
     1
  1
型枠計画図
  1
001*,002*,003*,004*,005*,006*,007*,010*,012*,050*,051*,055*,056*,057*,058*,059*,060*,061*,062*,063*,064*,065*,066*,067*,068*,069*,070*,071*,072*,073*,074*,075*
  1
*
  1
*
 70
     0
  1
*
  1
*
  0
XRECORD
  5
213
102
{ACAD_REACTORS
330
45
102
}
330
45
100
AcDbXrecord
280
     1
  1
計画高平面図
  1
*く*
  1
*
  1
*
 70
     0
  1
*
  1
*
  0
XRECORD
  5
214
102
{ACAD_REACTORS
330
45
102
}
330
45
100
AcDbXrecord
280
     1
  1
計画平面
  1
*け*
  1
*
  1
*
 70
     0
  1
*
  1
*
  0
XRECORD
  5
215
102
{ACAD_REACTORS
330
45
102
}
330
45
100
AcDbXrecord
280
     1
  1
計画平面図
  1
*け*
  1
*
  1
*
 70
     0
  1
*
  1
*
  0
XRECORD
  5
216
102
{ACAD_REACTORS
330
45
102
}
330
45
100
AcDbXrecord
280
     1
  1
劇場ﾌﾟﾗｻﾞ
  1
*え*
  1
*
  1
*
 70
     0
  1
*
  1
*
  0
XRECORD
  5
217
102
{ACAD_REACTORS
330
45
102
}
330
45
100
AcDbXrecord
280
     1
  1
劇場棟
  1
*げ*
  1
*
  1
*
 70
     0
  1
*
  1
*
  0
XRECORD
  5
218
102
{ACAD_REACTORS
330
45
102
}
330
45
100
AcDbXrecord
280
     1
  1
建具
  1
*-建
  1
*
  1
*
 70
     0
  1
*
  1
*
  0
XRECORD
  5
219
102
{ACAD_REACTORS
330
45
102
}
330
45
100
AcDbXrecord
280
     1
  1
建築接地図
  1
A01*
  1
*
  1
*
 70
     0
  1
*
  1
*
  0
XRECORD
  5
21A
102
{ACAD_REACTORS
330
45
102
}
330
45
100
AcDbXrecord
280
     1
  1
見上げ
  1
*U
  1
*
  1
*
 70
     0
  1
*
  1
*
  0
XRECORD
  5
21B
102
{ACAD_REACTORS
330
45
102
}
330
45
100
AcDbXrecord
280
     1
  1
現在非表示画層
  1
*
  1
*
  1
*
 70
     3
  1
*
  1
*
  0
XRECORD
  5
21C
102
{ACAD_REACTORS
330
45
102
}
330
45
100
AcDbXrecord
280
     1
  1
光天井
  1
*-光
  1
*
  1
*
 70
     0
  1
*
  1
*
  0
XRECORD
  5
21D
102
{ACAD_REACTORS
330
45
102
}
330
45
100
AcDbXrecord
280
     1
  1
公園
  1
K*
  1
*
  1
*
 70
     0
  1
*
  1
*
  0
XRECORD
  5
21E
102
{ACAD_REACTORS
330
45
102
}
330
45
100
AcDbXrecord
280
     1
  1
工事区分図
  1
*じ*
  1
*
  1
*
 70
     0
  1
*
  1
*
  0
XRECORD
  5
21F
102
{ACAD_REACTORS
330
45
102
}
330
45
100
AcDbXrecord
280
     1
  1
工事区分図AB
  1
*α*
  1
*
  1
*
 70
     0
  1
*
  1
*
  0
XRECORD
  5
220
102
{ACAD_REACTORS
330
45
102
}
330
45
100
AcDbXrecord
280
     1
  1
工事区分図CD
  1
*β*
  1
*
  1
*
 70
     0
  1
*
  1
*
  0
XRECORD
  5
221
102
{ACAD_REACTORS
330
45
102
}
330
45
100
AcDbXrecord
280
     1
  1
高さ
  1
204-TEXT,東西道路*
  1
*
  1
*
 70
     0
  1
*
  1
*
  0
XRECORD
  5
222
102
{ACAD_REACTORS
330
45
102
}
330
45
100
AcDbXrecord
280
     1
  1
高木植栽平面
  1
*こ*
  1
*
  1
*
 70
     0
  1
*
  1
*
  0
XRECORD
  5
223
102
{ACAD_REACTORS
330
45
102
}
330
45
100
AcDbXrecord
280
     1
  1
高木平面図
  1
*こ*
  1
*
  1
*
 70
     0
  1
*
  1
*
  0
XRECORD
  5
224
102
{ACAD_REACTORS
330
45
102
}
330
45
100
AcDbXrecord
280
     1
  1
座席のみ
  1
*
  1
*
  1
*
 70
     0
  1
*
  1
*
  0
XRECORD
  5
225
102
{ACAD_REACTORS
330
45
102
}
330
45
100
AcDbXrecord
280
     1
  1
作業
  1
100-*,地区*,
  1
*
  1
*
 70
     1
  1
*
  1
*
  0
XRECORD
  5
226
102
{ACAD_REACTORS
330
45
102
}
330
45
100
AcDbXrecord
280
     1
  1
参考
  1
六*
  1
*
  1
*
 70
     0
  1
*
  1
*
  0
XRECORD
  5
227
102
{ACAD_REACTORS
330
45
102
}
330
45
100
AcDbXrecord
280
     1
  1
山止根切計画図
  1
001*,002*,003*,004*,005*,007*,012*,049*,050*,051*,052*,053*,054*,055*,056*,057*,058*,059*,060*,061*,062*,064*,065*,066*,067*,068*,069*,070*,071*,072*,073*,074*,075*
  1
*
  1
*
 70
     0
  1
*
  1
*
  0
XRECORD
  5
228
102
{ACAD_REACTORS
330
45
102
}
330
45
100
AcDbXrecord
280
     1
  1
仕
  1
*_仕
  1
*
  1
*
 70
     0
  1
*
  1
*
  0
XRECORD
  5
229
102
{ACAD_REACTORS
330
45
102
}
330
45
100
AcDbXrecord
280
     1
  1
仕上
  1
*-2
  1
*
  1
*
 70
     0
  1
*
  1
*
  0
XRECORD
  5
22A
102
{ACAD_REACTORS
330
45
102
}
330
45
100
AcDbXrecord
280
     1
  1
仕上図
  1
C*
  1
*
  1
*
 70
     0
  1
*
  1
*
  0
XRECORD
  5
22B
102
{ACAD_REACTORS
330
45
102
}
330
45
100
AcDbXrecord
280
     1
  1
使用中
  1
使用中
  1
*
  1
*
 70
     1
  1
*
  1
*
  0
XRECORD
  5
22C
102
{ACAD_REACTORS
330
45
102
}
330
45
100
AcDbXrecord
280
     1
  1
施設配置図
  1
*し*
  1
*
  1
*
 70
     0
  1
*
  1
*
  0
XRECORD
  5
22D
102
{ACAD_REACTORS
330
45
102
}
330
45
100
AcDbXrecord
280
     1
  1
施設平面
  1
*し*
  1
*
  1
*
 70
     0
  1
*
  1
*
  0
XRECORD
  5
22E
102
{ACAD_REACTORS
330
45
102
}
330
45
100
AcDbXrecord
280
     1
  1
施設平面図
  1
*し*
  1
*
  1
*
 70
     0
  1
*
  1
*
  0
XRECORD
  5
22F
102
{ACAD_REACTORS
330
45
102
}
330
45
100
AcDbXrecord
280
     1
  1
紫
  1
*
  1
Magenta
  1
*
 70
     0
  1
*
  1
*
  0
XRECORD
  5
230
102
{ACAD_REACTORS
330
45
102
}
330
45
100
AcDbXrecord
280
     1
  1
床伏図
  1
*U*,20,Z20,Z22,Z23
  1
*
  1
*
 70
     0
  1
*
  1
*
  0
XRECORD
  5
231
102
{ACAD_REACTORS
330
45
102
}
330
45
100
AcDbXrecord
280
     1
  1
昇降機
  1
T*
  1
*
  1
*
 70
     0
  1
*
  1
*
  0
XRECORD
  5
232
102
{ACAD_REACTORS
330
45
102
}
330
45
100
AcDbXrecord
280
     1
  1
照明
  1
*ら*,*れ*
  1
*
  1
*
 70
     0
  1
*
  1
*
  0
XRECORD
  5
233
102
{ACAD_REACTORS
330
45
102
}
330
45
100
AcDbXrecord
280
     1
  1
照明Ｃ１
  1
*ら*
  1
*
  1
*
 70
     0
  1
*
  1
*
  0
XRECORD
  5
234
102
{ACAD_REACTORS
330
45
102
}
330
45
100
AcDbXrecord
280
     1
  1
照明Ｃ２
  1
*れ*
  1
*
  1
*
 70
     0
  1
*
  1
*
  0
XRECORD
  5
235
102
{ACAD_REACTORS
330
45
102
}
330
45
100
AcDbXrecord
280
     1
  1
照明配置図
  1
*め*
  1
*
  1
*
 70
     0
  1
*
  1
*
  0
XRECORD
  5
236
102
{ACAD_REACTORS
330
45
102
}
330
45
100
AcDbXrecord
280
     1
  1
詳細
  1
詳細*
  1
*
  1
*
 70
     0
  1
*
  1
*
  0
XRECORD
  5
237
102
{ACAD_REACTORS
330
45
102
}
330
45
100
AcDbXrecord
280
     1
  1
詳細図
  1
*u*,*w*,*y*,*x*,*s*,*V*,06
  1
*
  1
*
 70
     0
  1
*
  1
*
  0
XRECORD
  5
238
102
{ACAD_REACTORS
330
45
102
}
330
45
100
AcDbXrecord
280
     1
  1
上階躯体図
  1
KUTAI-Z,SIZE,HOJO,ZATU,HATCH,BR-S,KABE2,KABE,MAJIKIRI,KOBARI-S,KOBARI-R,HARI-S,HARI-R,HASIRA-S,HASIRA-R,MOJI-K2,FL-FUGO,FUGO-W,SUNPO-K2,SUNPO,SUNPO2,SUNPO1,KIJUN2,KIJUN1,KIJUN,
  1
*
  1
*
 70
     0
  1
*
  1
*
  0
XRECORD
  5
239
102
{ACAD_REACTORS
330
45
102
}
330
45
100
AcDbXrecord
280
     1
  1
植栽
  1
*木*
  1
*
  1
*
 70
     0
  1
*
  1
*
  0
XRECORD
  5
23A
102
{ACAD_REACTORS
330
45
102
}
330
45
100
AcDbXrecord
280
     1
  1
植栽基盤平面
  1
*ど*
  1
*
  1
*
 70
     0
  1
*
  1
*
  0
XRECORD
  5
23B
102
{ACAD_REACTORS
330
45
102
}
330
45
100
AcDbXrecord
280
     1
  1
植栽現況
  1
*植*
  1
*
  1
*
 70
     0
  1
*
  1
*
  0
XRECORD
  5
23C
102
{ACAD_REACTORS
330
45
102
}
330
45
100
AcDbXrecord
280
     1
  1
植栽高木AB
  1
*λ*
  1
*
  1
*
 70
     0
  1
*
  1
*
  0
XRECORD
  5
23D
102
{ACAD_REACTORS
330
45
102
}
330
45
100
AcDbXrecord
280
     1
  1
植栽高木CD
  1
*ｑ*
  1
*
  1
*
 70
     0
  1
*
  1
*
  0
XRECORD
  5
23E
102
{ACAD_REACTORS
330
45
102
}
330
45
100
AcDbXrecord
280
     1
  1
植栽低木AB
  1
*γ*
  1
*
  1
*
 70
     0
  1
*
  1
*
  0
XRECORD
  5
23F
102
{ACAD_REACTORS
330
45
102
}
330
45
100
AcDbXrecord
280
     1
  1
植栽低木ＣＤ
  1
*Θ*
  1
*
  1
*
 70
     0
  1
*
  1
*
  0
XRECORD
  5
240
102
{ACAD_REACTORS
330
45
102
}
330
45
100
AcDbXrecord
280
     1
  1
色番号8
  1
*
  1
8
  1
*
 70
     0
  1
*
  1
*
  0
XRECORD
  5
241
102
{ACAD_REACTORS
330
45
102
}
330
45
100
AcDbXrecord
280
     1
  1
申請用
  1
*あ*,*き*,*グ*,*み*,*オ*,*ピ*,*92*
  1
*
  1
*
 70
     0
  1
*
  1
*
  0
XRECORD
  5
242
102
{ACAD_REACTORS
330
45
102
}
330
45
100
AcDbXrecord
280
     1
  1
芯
  1
*芯
  1
*
  1
*
 70
     0
  1
*
  1
*
  0
XRECORD
  5
243
102
{ACAD_REACTORS
330
45
102
}
330
45
100
AcDbXrecord
280
     1
  1
芯関係
  1
001*,002*,032*
  1
*
  1
*
 70
     0
  1
*
  1
*
  0
XRECORD
  5
244
102
{ACAD_REACTORS
330
45
102
}
330
45
100
AcDbXrecord
280
     1
  1
水
  1
*
  1
cyan
  1
*
 70
     0
  1
*
  1
*
  0
XRECORD
  5
245
102
{ACAD_REACTORS
330
45
102
}
330
45
100
AcDbXrecord
280
     1
  1
水色
  1
*
  1
Cyan
  1
*
 70
     0
  1
*
  1
*
  0
XRECORD
  5
246
102
{ACAD_REACTORS
330
45
102
}
330
45
100
AcDbXrecord
280
     1
  1
寸法
  1
*寸法
  1
*
  1
*
 70
     0
  1
*
  1
*
  0
XRECORD
  5
247
102
{ACAD_REACTORS
330
45
102
}
330
45
100
AcDbXrecord
280
     1
  1
製作
  1
B*
  1
*
  1
*
 70
     0
  1
*
  1
*
  0
XRECORD
  5
248
102
{ACAD_REACTORS
330
45
102
}
330
45
100
AcDbXrecord
280
     1
  1
製作-躯体
  1
BS*
  1
*
  1
*
 70
     0
  1
*
  1
*
  0
XRECORD
  5
249
102
{ACAD_REACTORS
330
45
102
}
330
45
100
AcDbXrecord
280
     1
  1
製作-建築
  1
BD*
  1
*
  1
*
 70
     0
  1
*
  1
*
  0
XRECORD
  5
24A
102
{ACAD_REACTORS
330
45
102
}
330
45
100
AcDbXrecord
280
     1
  1
製作-昇降機
  1
BT*
  1
*
  1
*
 70
     0
  1
*
  1
*
  0
XRECORD
  5
24B
102
{ACAD_REACTORS
330
45
102
}
330
45
100
AcDbXrecord
280
     1
  1
青
  1
*
  1
blue
  1
*
 70
     0
  1
*
  1
*
  0
XRECORD
  5
24C
102
{ACAD_REACTORS
330
45
102
}
330
45
100
AcDbXrecord
280
     1
  1
設備
  1
E*,P*,M*
  1
*
  1
*
 70
     0
  1
*
  1
*
  0
XRECORD
  5
24D
102
{ACAD_REACTORS
330
45
102
}
330
45
100
AcDbXrecord
280
     1
  1
設備プロット
  1
02*
  1
*
  1
*
 70
     0
  1
*
  1
*
  0
XRECORD
  5
24E
102
{ACAD_REACTORS
330
45
102
}
330
45
100
AcDbXrecord
280
     1
  1
全階平面図
  1
*
  1
*
  1
*
 70
     0
  1
*
  1
*
  0
XRECORD
  5
24F
102
{ACAD_REACTORS
330
45
102
}
330
45
100
AcDbXrecord
280
     1
  1
総合仮設図
  1
001*,002*,003*,004*,005*,007*,012*,015*,016*,017*,018*,019*,020*,021*,049*,050*,051*,052*,053*,054*,055*,056*,057*,058*,059*,060*,061*,062*,063*,064*,065*,066*,067*,068*,069*,070*,071*,072*,073*,074*,075*
  1
*
  1
*
 70
     0
  1
*
  1
*
  0
XRECORD
  5
250
102
{ACAD_REACTORS
330
45
102
}
330
45
100
AcDbXrecord
280
     1
  1
総合図
  1
*z*,*u*,*w*,*y*,*x*,*V*,06
  1
*
  1
*
 70
     0
  1
*
  1
*
  0
XRECORD
  5
251
102
{ACAD_REACTORS
330
45
102
}
330
45
100
AcDbXrecord
280
     1
  1
足場計画図
  1
001*,002*,003*,004*,005*,007*,012*,015*,049*,050*,051*,055*,056*,057*,058*,059*,060*,061*,062*,064*,065*,066*,067*,068*,069*,070*,071*,072*,073*,074*,075*
  1
*
  1
*
 70
     0
  1
*
  1
*
  0
XRECORD
  5
252
102
{ACAD_REACTORS
330
45
102
}
330
45
100
AcDbXrecord
280
     1
  1
地下埋設
  1
*ち*
  1
*
  1
*
 70
     0
  1
*
  1
*
  0
XRECORD
  5
253
102
{ACAD_REACTORS
330
45
102
}
330
45
100
AcDbXrecord
280
     1
  1
中野
  1
中野*
  1
*
  1
*
 70
     0
  1
*
  1
*
  0
XRECORD
  5
254
102
{ACAD_REACTORS
330
45
102
}
330
45
100
AcDbXrecord
280
     1
  1
低木植栽平面
  1
*て*
  1
*
  1
*
 70
     0
  1
*
  1
*
  0
XRECORD
  5
255
102
{ACAD_REACTORS
330
45
102
}
330
45
100
AcDbXrecord
280
     1
  1
低木平面図
  1
*て*
  1
*
  1
*
 70
     0
  1
*
  1
*
  0
XRECORD
  5
256
102
{ACAD_REACTORS
330
45
102
}
330
45
100
AcDbXrecord
280
     1
  1
鉄骨
  1
*-1
  1
*
  1
*
 70
     0
  1
*
  1
*
  0
XRECORD
  5
257
102
{ACAD_REACTORS
330
45
102
}
330
45
100
AcDbXrecord
280
     1
  1
鉄骨建方計画図
  1
001*,002*,003*,004*,005*,007*,012*,013*,049*,050*,051*,052*,053*,054*,055*,056*,057*,058*,059*,060*,061*,062*,063*,064*,065*,066*,067*,068*,069*,070*,071*,072*,073*,074*,075*
  1
*
  1
*
 70
     0
  1
*
  1
*
  0
XRECORD
  5
258
102
{ACAD_REACTORS
330
45
102
}
330
45
100
AcDbXrecord
280
     1
  1
天井インサート図
  1
001*,002*,004*,010*,022*,023*,024*,025*,026*,027*,028*,029*,037*,042*
  1
*
  1
*
 70
     0
  1
*
  1
*
  0
XRECORD
  5
259
102
{ACAD_REACTORS
330
45
102
}
330
45
100
AcDbXrecord
280
     1
  1
天井総合図
  1
001*,002*,004*,005*,007*,010*,022*,023*,024*,025*,026*,027*,028*,029*,030*,031*,033*,035*,036*,037*,039*,041*,042*,044*,046*,047*
  1
*
  1
*
 70
     0
  1
*
  1
*
  0
XRECORD
  5
25A
102
{ACAD_REACTORS
330
45
102
}
330
45
100
AcDbXrecord
280
     1
  1
天井伏図
  1
0,00*,01*,03*,05*,1*,2*,3*,4*,7*,9*
  1
*
  1
*
 70
     0
  1
*
  1
*
  0
XRECORD
  5
25B
102
{ACAD_REACTORS
330
45
102
}
330
45
100
AcDbXrecord
280
     1
  1
天伏
  1
*05
  1
*
  1
*
 70
     0
  1
*
  1
*
  0
XRECORD
  5
25C
102
{ACAD_REACTORS
330
45
102
}
330
45
100
AcDbXrecord
280
     1
  1
電気設備図
  1
001*,002*,004*,005*,007*,010*,030*,031*,044*,045*,046*,047*,048*
  1
*
  1
*
 70
     0
  1
*
  1
*
  0
XRECORD
  5
25D
102
{ACAD_REACTORS
330
45
102
}
330
45
100
AcDbXrecord
280
     1
  1
土壌改良
  1
*ど*
  1
*
  1
*
 70
     0
  1
*
  1
*
  0
XRECORD
  5
25E
102
{ACAD_REACTORS
330
45
102
}
330
45
100
AcDbXrecord
280
     1
  1
土木計画平面図
  1
*^ *,*B*,*0*,*排*,*法*,*ﾊ*,*b*
  1
*
  1
*
 70
     0
  1
*
  1
*
  0
XRECORD
  5
25F
102
{ACAD_REACTORS
330
45
102
}
330
45
100
AcDbXrecord
280
     1
  1
道路
  1
R*
  1
*
  1
*
 70
     0
  1
*
  1
*
  0
XRECORD
  5
260
102
{ACAD_REACTORS
330
45
102
}
330
45
100
AcDbXrecord
280
     1
  1
道路関係図
  1
001*,002*,003*,004*,007*,012*,015*,016*,017*,018*,019*,020*,021*,049*,050*,051*,052*,053*,054*,055*,056*,057*,058*,059*,060*,061*,062*,063*,064*,065*,066*,067*,068*,069*,070*,071*,072*,073*,074*,075*
  1
*
  1
*
 70
     0
  1
*
  1
*
  0
XRECORD
  5
261
102
{ACAD_REACTORS
330
45
102
}
330
45
100
AcDbXrecord
280
     1
  1
排水
  1
*は*
  1
*
  1
*
 70
     0
  1
*
  1
*
  0
XRECORD
  5
262
102
{ACAD_REACTORS
330
45
102
}
330
45
100
AcDbXrecord
280
     1
  1
排水設備平面図
  1
*は*
  1
*
  1
*
 70
     0
  1
*
  1
*
  0
XRECORD
  5
263
102
{ACAD_REACTORS
330
45
102
}
330
45
100
AcDbXrecord
280
     1
  1
排水平面
  1
*は*
  1
*
  1
*
 70
     0
  1
*
  1
*
  0
XRECORD
  5
264
102
{ACAD_REACTORS
330
45
102
}
330
45
100
AcDbXrecord
280
     1
  1
配管
  1
PIPE*
  1
*
  1
*
 70
     0
  1
*
  1
*
  0
XRECORD
  5
265
102
{ACAD_REACTORS
330
45
102
}
330
45
100
AcDbXrecord
280
     1
  1
非表示
  1
*
  1
*
  1
*
 70
     3
  1
*
  1
*
  0
XRECORD
  5
266
102
{ACAD_REACTORS
330
45
102
}
330
45
100
AcDbXrecord
280
     1
  1
非表示ﾚｲﾔｰ
  1
*-z
  1
*
  1
*
 70
     0
  1
*
  1
*
  0
XRECORD
  5
267
102
{ACAD_REACTORS
330
45
102
}
330
45
100
AcDbXrecord
280
     1
  1
表示
  1
*
  1
*
  1
*
 70
     1
  1
*
  1
*
  0
XRECORD
  5
268
102
{ACAD_REACTORS
330
45
102
}
330
45
100
AcDbXrecord
280
     1
  1
表示・非表示
  1
*
  1
*
  1
*
 70
     1
  1
*
  1
*
  0
XRECORD
  5
269
102
{ACAD_REACTORS
330
45
102
}
330
45
100
AcDbXrecord
280
     1
  1
表示2
  1
*
  1
*
  1
*
 70
   257
  1
*
  1
*
  0
XRECORD
  5
26A
102
{ACAD_REACTORS
330
45
102
}
330
45
100
AcDbXrecord
280
     1
  1
分割枠
  1
枠*
  1
*
  1
*
 70
     0
  1
*
  1
*
  0
XRECORD
  5
26B
102
{ACAD_REACTORS
330
45
102
}
330
45
100
AcDbXrecord
280
     1
  1
平面詳細図
  1
SUNPO-S,SIZE,HOJO,ZATU,HATCH,HWAKU,HMOJI,WARITUKE-T,WARITUKE-Y,WARITUKE-K,TATEGU1,TATEGU,BR-S,MAJIKIRI,KABE2,SIAGE,KABE1,KABE,KOBARI-S,KOBARI-R,HARI-S,HARI-R,HASIRA-S,HASIRA-R,MOJI,SHITUMEI,LABEL,FL-FUGO,FUGO-W,SUNPO,SUNPO2,SUNPO1,KIJUN2,KIJUN1,KIJUN
  1
*
  1
*
 70
     0
  1
*
  1
*
  0
XRECORD
  5
26C
102
{ACAD_REACTORS
330
45
102
}
330
45
100
AcDbXrecord
280
     1
  1
平面図
  1
*HMOJI,*HOJO2,*HOJO3,*SINSEI,*FUGOT
  1
*
  1
*
 70
     0
  1
*
  1
*
  0
XRECORD
  5
26D
102
{ACAD_REACTORS
330
45
102
}
330
45
100
AcDbXrecord
280
     1
  1
平面総合図
  1
001*,002*,004*,010*,013*,014*,015*,016*,017*,018*,019*,020*,021*,030*,031*,034*,040*,045*
  1
*
  1
*
 70
     0
  1
*
  1
*
  0
XRECORD
  5
26E
102
{ACAD_REACTORS
330
45
102
}
330
45
100
AcDbXrecord
280
     1
  1
変更分
  1
六*
  1
*
  1
*
 70
     0
  1
*
  1
*
  0
XRECORD
  5
26F
102
{ACAD_REACTORS
330
45
102
}
330
45
100
AcDbXrecord
280
     1
  1
舗装平面
  1
*ほ*
  1
*
  1
*
 70
     0
  1
*
  1
*
  0
XRECORD
  5
270
102
{ACAD_REACTORS
330
45
102
}
330
45
100
AcDbXrecord
280
     1
  1
舗装平面C1
  1
*α*
  1
*
  1
*
 70
     0
  1
*
  1
*
  0
XRECORD
  5
271
102
{ACAD_REACTORS
330
45
102
}
330
45
100
AcDbXrecord
280
     1
  1
舗装平面C2
  1
*β*
  1
*
  1
*
 70
     0
  1
*
  1
*
  0
XRECORD
  5
272
102
{ACAD_REACTORS
330
45
102
}
330
45
100
AcDbXrecord
280
     1
  1
舗装平面図
  1
*ほ*
  1
*
  1
*
 70
     0
  1
*
  1
*
  0
XRECORD
  5
273
102
{ACAD_REACTORS
330
45
102
}
330
45
100
AcDbXrecord
280
     1
  1
法規チェック－区画
  1
*92
  1
*
  1
*
 70
     0
  1
*
  1
*
  0
XRECORD
  5
274
102
{ACAD_REACTORS
330
45
102
}
330
45
100
AcDbXrecord
280
     1
  1
法規チェック－範囲
  1
*0
  1
*
  1
*
 70
     0
  1
*
  1
*
  0
XRECORD
  5
275
102
{ACAD_REACTORS
330
45
102
}
330
45
100
AcDbXrecord
280
     1
  1
鳳文字入力
  1
*
  1
*
  1
*
 70
     0
  1
*
  1
*
  0
XRECORD
  5
276
102
{ACAD_REACTORS
330
45
102
}
330
45
100
AcDbXrecord
280
     1
  1
防災
  1
B*
  1
*
  1
*
 70
   768
  1
*
  1
*
  0
XRECORD
  5
277
102
{ACAD_REACTORS
330
45
102
}
330
45
100
AcDbXrecord
280
     1
  1
名称
  1
*名称
  1
*
  1
*
 70
     0
  1
*
  1
*
  0
XRECORD
  5
278
102
{ACAD_REACTORS
330
45
102
}
330
45
100
AcDbXrecord
280
     1
  1
面積
  1
*
  1
*
  1
*
 70
     3
  1
*
  1
*
  0
XRECORD
  5
279
102
{ACAD_REACTORS
330
45
102
}
330
45
100
AcDbXrecord
280
     1
  1
擁壁平面図
  1
*よ*
  1
*
  1
*
 70
     0
  1
*
  1
*
  0
XRECORD
  5
27A
102
{ACAD_REACTORS
330
45
102
}
330
45
100
AcDbXrecord
280
     1
  1
用途色塗
  1
*1-*
  1
*
  1
*
 70
     0
  1
*
  1
*
  0
XRECORD
  5
27B
102
{ACAD_REACTORS
330
45
102
}
330
45
100
AcDbXrecord
280
     1
  1
立面図
  1
*HOJO2
  1
*
  1
*
 70
     0
  1
*
  1
*
  0
XRECORD
  5
27C
102
{ACAD_REACTORS
330
45
102
}
330
45
100
AcDbXrecord
280
     1
  1
梁
  1
0,08*,17*,梁*
  1
*
  1
*
 70
     0
  1
*
  1
*
  0
XRECORD
  5
27D
102
{ACAD_REACTORS
330
45
102
}
330
45
100
AcDbXrecord
280
     1
  1
緑
  1
*
  1
Green
  1
*
 70
     0
  1
*
  1
*
  0
ENDSEC
  0
EOF
